<?xml version="1.0" standalone="no"?>
<!DOCTYPE svg PUBLIC "-//W3C//DTD SVG 1.1//EN" "http://www.w3.org/Graphics/SVG/1.1/DTD/svg11.dtd" >
<svg xmlns="http://www.w3.org/2000/svg">
<metadata></metadata>
<defs>
<font id="crimson_textitalic" horiz-adv-x="1039" >
<font-face units-per-em="2048" ascent="1484" descent="-564" />
<missing-glyph horiz-adv-x="517" />
<glyph horiz-adv-x="2048" />
<glyph horiz-adv-x="2048" />
<glyph unicode="&#xd;" horiz-adv-x="2048" />
<glyph unicode=" "  horiz-adv-x="517" />
<glyph unicode="&#x09;" horiz-adv-x="517" />
<glyph unicode="&#xa0;" horiz-adv-x="517" />
<glyph unicode="!" horiz-adv-x="533" d="M46 82q0 63 43.5 107t106.5 44q41 0 69.5 -32t28.5 -73q0 -66 -42 -113t-106 -47q-43 0 -71.5 34t-28.5 80zM182 378q0 6 20 165t50 389.5t51 383.5q6 38 45.5 80.5t89.5 42.5q33 0 51.5 -29.5t18.5 -68.5q0 -15 -11 -64.5t-29.5 -117.5t-44.5 -163t-52 -189.5 t-56.5 -209.5t-54.5 -209q-5 -21 -29 -36t-35 -15q-14 0 -14 41z" />
<glyph unicode="&#x22;" horiz-adv-x="754" d="M246 1019q9 91 9 171.5t-4.5 154.5t-4.5 105q4 23 23.5 55t55.5 59t74 27q17 0 28.5 -1.5t21.5 -6.5t15 -15t7 -26.5t0 -40.5t-8 -58q-14 -71 -66 -214.5t-69 -204.5q-5 -16 -19.5 -25t-28.5 -9q-13 0 -24.5 8t-9.5 21zM588 1019q9 91 9 171.5t-4.5 154.5t-4.5 105 q4 23 23.5 55t55.5 59t74 27q21 0 33.5 -2.5t23 -10.5t14 -24.5t2 -43.5t-8.5 -67q-9 -43 -26 -98t-34.5 -101.5t-39 -108.5t-35.5 -111q-5 -16 -19.5 -25t-28.5 -9q-13 0 -24.5 8t-9.5 21z" />
<glyph unicode="#" horiz-adv-x="1019" d="M30 413q0 27 19 67t33 40h180l69 210h-181q-7 0 -9 1t-2 5q0 18 9.5 44t22 45t21.5 19h180l116 348q0 3 3.5 6t21 6.5t46.5 3.5q25 0 43 -9q-2 -6 -31.5 -92.5t-58.5 -169.5t-29 -84l-4 -9h212l116 348q0 3 3.5 6t21 6.5t46.5 3.5q25 0 43 -9q-1 -5 -20 -60t-41 -118 t-39.5 -115.5l-17.5 -52.5l-5 -9h182q9 0 10.5 -1t1.5 -4q0 -28 -19.5 -68.5t-33.5 -40.5h-180l-68 -210h180q5 0 7 -0.5t3 -2t1 -4.5q0 -27 -19 -67t-33 -40h-180l-116 -349q0 -2 -4 -5t-21 -7t-46 -4q-30 0 -43 7q2 9 31.5 95.5t58 169.5t28.5 84l5 9h-212l-117 -349 q0 -2 -3.5 -5t-21 -7t-45.5 -4q-30 0 -44 7q2 9 32 95.5t58.5 169.5t28.5 84l4 9h-182q-7 0 -9 1t-2 6zM372 520h209l69 210h-210z" />
<glyph unicode="$" horiz-adv-x="991" d="M41.5 332q0.5 48 1.5 72q5 6 23 9.5t32 3.5q16 0 23 -13q0 -49 14.5 -102.5t50.5 -109.5t88 -89l189 547q-13 10 -47 35.5t-49 38t-44 38t-43.5 43.5t-34.5 47t-29.5 55.5t-16.5 62t-7 74.5q0 53 14.5 103t40.5 91t61 76.5t76.5 62.5t86.5 46t91 28.5t90 9.5q34 0 94 -4 l34 100q73 0 70 -16l-34 -98q50 -10 137 -34q-5 -57 -20 -162.5t-26 -154.5q-2 -16 -20 -16q-32 0 -48 16q11 175 -62 242l-180 -522q4 -3 9.5 -7.5t9.5 -6.5q17 -14 51 -38t55.5 -41t51 -42.5t48 -50t36.5 -56t27 -69t9 -79.5q0 -79 -31 -150t-82.5 -123t-117 -90.5 t-135.5 -57.5t-136 -19q-41 0 -82 7l-36 -108q-22 0 -47.5 5.5t-23.5 15.5l36 103q-55 15 -171 68q-13 54 -20 132.5t-6.5 126.5zM340 71q42 -12 84 -12q49 0 97 17t87.5 49t64.5 83t25 113q0 41 -10 76.5t-23.5 61t-39 53.5t-46.5 45.5t-55 44.5zM363 1140q0 -50 13 -92 t40 -77t53.5 -59.5t66.5 -54.5l178 513q-38 14 -94 14q-64 0 -115.5 -22t-81.5 -58.5t-45 -78t-15 -85.5z" />
<glyph unicode="%" horiz-adv-x="1436" d="M5 -2l1358 1489q26 25 51 25q49 0 61 -30l-1359 -1482q-8 -8 -32 -17.5t-45 -9.5q-28 0 -34 25zM169 1069q0 83 32.5 167t87 150t132.5 107t163 41q63 0 113.5 -25t81 -67.5t46.5 -95.5t16 -113q0 -81 -32.5 -164t-87 -149t-131 -107.5t-157.5 -41.5q-83 0 -144.5 42.5 t-90.5 109.5t-29 146zM312 1090q0 -46 8.5 -89.5t25 -81.5t46 -61.5t69.5 -23.5q51 0 96 37t74 95.5t45.5 128.5t16.5 138q0 44 -6.5 83.5t-20.5 76t-41 58.5t-64 22q-69 0 -127.5 -59t-90 -146.5t-31.5 -177.5zM652 280q0 84 32.5 167.5t87 149.5t133 107.5t162.5 41.5 q64 0 114 -25t81 -68t47 -96t16 -112q0 -82 -33 -165t-87 -149t-130.5 -107.5t-157.5 -41.5q-63 0 -114.5 24.5t-83.5 66.5t-49.5 95t-17.5 112zM796 301q0 -46 8 -89.5t24.5 -81.5t46.5 -61t69 -23q52 0 96.5 36.5t73.5 95t45.5 128.5t16.5 139q0 43 -6.5 82.5t-20.5 76 t-41 58.5t-64 22q-69 0 -127 -59t-89.5 -146.5t-31.5 -177.5z" />
<glyph unicode="&#x26;" horiz-adv-x="1780" d="M-16 244q0 107 64.5 186t184.5 113q13 4 44.5 12t41.5 10q7 80 32.5 160t66 152.5t97.5 135.5t123.5 109.5t147.5 73t167 26.5q79 0 135.5 -56.5t56.5 -134.5q0 -62 -25 -119t-65 -100.5t-96.5 -83.5t-113 -68t-122.5 -53.5t-116.5 -40.5t-102.5 -28q10 -237 121 -356.5 t310 -119.5q78 0 155 29t137 78.5t97 120.5t37 148q0 14 -3.5 30.5t-8.5 31t-11 26.5t-11 17q-37 -12 -71.5 -26.5t-69.5 -35t-60.5 -43t-42 -50.5t-16.5 -57q0 -35 9 -51q-6 -4 -22 -1t-23 13q-20 16 -34 52.5t-14 77.5q0 74 64 131t198 115q70 30 128 62.5t120 84 t103.5 109.5t65.5 139t18 173q25 2 46 -18q50 -101 50 -215q0 -88 -38.5 -167t-101 -136.5t-145.5 -97.5q14 -27 14 -82q0 -101 -54 -198.5t-141.5 -170.5t-206 -117.5t-241.5 -44.5q-91 0 -169.5 16.5t-147.5 54.5t-118.5 95.5t-78.5 143t-31 193.5q-50 -12 -85 -24 t-68 -29t-49.5 -39t-16.5 -49q0 -12 2.5 -21.5t8.5 -17t10 -11.5t13 -11t12 -10q13 -12 20.5 -19.5t15 -23t7.5 -32.5q0 -47 -28.5 -72.5t-71.5 -25.5q-37 0 -57 12q-21 17 -33.5 55.5t-12.5 69.5zM504 625q429 147 429 367q0 134 -117 134q-56 0 -110 -37.5t-97 -102.5 t-71.5 -159.5t-33.5 -201.5z" />
<glyph unicode="'" horiz-adv-x="412" d="M246 1019q9 91 9 171.5t-4.5 154.5t-4.5 105q4 23 23.5 55t55.5 59t74 27q17 0 28.5 -1.5t21.5 -6.5t15 -15t7 -26.5t0 -40.5t-8 -58q-14 -71 -66 -214.5t-69 -204.5q-5 -16 -19.5 -25t-28.5 -9q-13 0 -24.5 8t-9.5 21z" />
<glyph unicode="(" horiz-adv-x="592" d="M125 404q-13 139 0.5 276t44 249t78 219.5t97 189t107 156.5t103 123t90.5 88q16 -6 16 -29q-47 -53 -101.5 -141.5t-115 -221t-106.5 -277t-69.5 -321t-9.5 -341.5q20 -233 73 -378.5t144 -244.5q0 -22 -12 -27q-52 20 -105 73.5t-101.5 136t-84.5 205.5t-48 265z" />
<glyph unicode=")" horiz-adv-x="592" d="M-9 -246q46 53 101 141t115.5 221t106 277.5t69 321t9.5 341.5q-20 232 -73 378t-144 244q0 23 12 27q52 -19 105 -72.5t101.5 -136.5t84.5 -205.5t48 -264.5q13 -140 -0.5 -277t-44 -249t-77.5 -219t-97 -188.5t-107.5 -156.5t-103 -123.5t-89.5 -88.5q-9 3 -13.5 13 t-2.5 17z" />
<glyph unicode="*" horiz-adv-x="911" d="M146 1040q0 14 5 28.5t18 32t43 28.5t73 11q36 0 97 -8t81 -8q57 0 57 39q0 15 -12 38t-29 48.5t-34 53t-29 59t-12 58.5q0 41 23 67.5t54 26.5q17 0 30 -7.5t21 -22.5t13 -31.5t7.5 -40.5t3 -43.5t0.5 -46.5v-5q-2 -145 28 -145q15 0 39 28t51 68t57 79.5t65.5 67.5 t67.5 28q24 0 38.5 -15t14.5 -39q0 -37 -31.5 -71t-76 -60t-89 -49t-76 -46.5t-31.5 -43.5q0 -14 21 -24.5t52.5 -17.5t68 -17t68 -21t52.5 -33t21 -51q0 -21 -11.5 -40t-31 -30.5t-41.5 -11.5q-27 0 -55.5 19.5t-52 47.5t-45 55.5t-42 47t-36.5 19.5q-22 0 -30 -40.5 t-15 -117t-23 -127.5q-14 -48 -40.5 -73t-52.5 -25q-23 0 -38 18t-15 46q0 31 23 79.5t51 90t51 83.5t23 62t-20 20q-16 0 -52.5 -14.5t-73.5 -32t-81 -32t-74 -14.5t-49 14t-19 41z" />
<glyph unicode="+" horiz-adv-x="1035" d="M41 513q0 41 30 80h392l75 399q3 13 25.5 22t41 11.5t27.5 2.5q12 0 17 -5t3 -13l-80 -417h390q7 0 7 -18q0 -26 -5 -43.5t-22 -36.5h-388l-80 -406q-3 -16 -27 -26.5t-53 -10.5q-31 0 -31 19l82 424h-393q-11 0 -11 18z" />
<glyph unicode="," horiz-adv-x="455" d="M-64 -203q15 7 37.5 23t50.5 41.5t47.5 61.5t19.5 72q0 48 -9.5 78t-19.5 53.5t-10 53.5q0 51 37 82.5t89 31.5q20 0 38.5 -7t25.5 -16q7 -17 7 -54q0 -146 -83 -281q-42 -70 -100.5 -119.5t-97.5 -65.5q-7 0 -19.5 16.5t-12.5 29.5z" />
<glyph unicode="-" horiz-adv-x="845" d="M121 488q0 24 15.5 65t32.5 42l517 27q14 0 14 -27q0 -15 -8 -42t-21 -50t-23 -24l-516 -25q-11 0 -11 34z" />
<glyph unicode="." horiz-adv-x="474" d="M18 75q0 62 47.5 110t105.5 48q44 0 71 -29t27 -74q0 -63 -46.5 -112.5t-103.5 -49.5q-45 0 -73 30.5t-28 76.5z" />
<glyph unicode="/" horiz-adv-x="870" d="M-73 -64l969 1749q10 15 43 32.5t62 17.5q18 0 27 -14l-966 -1748q-8 -13 -40.5 -32t-67.5 -19q-6 0 -15.5 5t-11.5 9z" />
<glyph unicode="0" d="M177 499q1 110 25 228q29 150 86.5 282.5t134.5 233.5t176.5 159.5t206.5 58.5q72 0 131.5 -26.5t100.5 -75t67.5 -116t37 -149.5t6 -174.5t-23.5 -192.5q-29 -149 -86.5 -282t-134.5 -233.5t-177 -159.5t-206 -59q-84 0 -150.5 38t-108.5 106.5t-64 160t-21 201.5z M358.5 476.5q-3.5 -120.5 14 -209.5t57.5 -141.5t98 -52.5q69 0 134 53.5t118 146.5t94.5 212.5t68.5 255.5q26 133 29.5 251t-14.5 204t-58.5 136t-98.5 50q-86 0 -169 -89t-145.5 -236t-97.5 -327q-27 -133 -30.5 -253.5z" />
<glyph unicode="1" d="M299 30.5q6 28.5 15 28.5q27 0 88.5 14.5t68.5 31.5q17 38 37 130l159 821q8 39 12.5 63t8.5 50.5t3.5 41.5t-2.5 28t-9 18.5t-17 5.5q-14 0 -66 -15.5t-80 -29.5q-12 6 -17.5 19t-3.5 26q0 12 7 14q395 187 406 187h4q9 0 14 -15.5t5 -28.5q-37 -75 -64 -214l-173 -898 q-26 -139 -23 -203q1 -16 56 -31t76 -15q6 0 0 -41q-2 -9 -3.5 -15.5t-3.5 -9.5q-211 12 -251 12q-38 0 -76 -2t-92 -5.5t-78 -4.5q-7 9 -1 37.5z" />
<glyph unicode="2" d="M91 34q94 85 289.5 286t296.5 316q118 133 172 245t54 227q0 63 -23.5 110t-65.5 72.5t-98 25.5q-48 0 -97 -16.5t-86 -39.5t-71 -52t-53.5 -50t-32.5 -39q-11 0 -22.5 14.5t-9.5 22.5q6 13 21 35t40 51t56 59t69.5 59.5t79.5 52.5t88.5 37t92.5 14q84 0 155.5 -36.5 t115.5 -105t44 -155.5q0 -75 -18.5 -143t-56.5 -132t-83 -118t-111 -122q-31 -31 -68.5 -68t-74 -72.5t-76 -72.5t-75 -70.5t-69 -64t-60.5 -55.5t-47 -43.5t-31 -29t-10 -10.5h388q163 0 239 169q8 21 30 21q3 0 9.5 -1.5t12.5 -4t11 -4.5t5 -4q-145 -273 -175 -342h-741 q-14 14 -14 34z" />
<glyph unicode="3" d="M144 109q0 52 29 92.5t66 40.5q27 0 46.5 -12t29 -26.5t22.5 -36.5t21 -32q27 -33 61.5 -44t84.5 -11q39 0 83 18.5t87 55.5t77 86t55.5 117t21.5 142q0 115 -59 181t-163 66q-43 0 -134 -23q-9 15 -9 32q0 28 7 38q46 9 94 26t94.5 41.5t87 58t72 71.5t49.5 84.5 t18 95.5q0 88 -49 129.5t-127 41.5q-38 0 -75 -12.5t-66 -32t-51 -37.5t-39.5 -35t-21.5 -20q-10 0 -13 19.5t2 35.5q169 205 376 205q33 0 65 -9.5t62 -30t53 -49t36.5 -70t13.5 -90.5q0 -54 -24 -108.5t-64 -99.5t-84.5 -81t-91.5 -62q61 -8 116 -55.5t86.5 -116 t31.5 -136.5q0 -84 -31.5 -163.5t-83.5 -140t-118 -111.5t-135 -83.5t-134 -50.5t-115 -18q-158 0 -240 57q-7 9 -13.5 27.5t-6.5 35.5z" />
<glyph unicode="4" d="M137 440l878 971q15 17 39.5 37t35.5 20q15 0 24 -13.5t6 -27.5l-176 -900h128q11 0 14.5 -29t-3.5 -65q-4 -19 -16 -36h-148l-77 -399q-16 -12 -98 -12q-42 0 -59.5 3.5t-16.5 15.5l78 392h-597q-17 11 -12 43zM299 527h472l130 668z" />
<glyph unicode="5" d="M144 109q0 52 29 92.5t66 40.5q27 0 46.5 -12t29 -26.5t22.5 -36.5t21 -32q27 -33 61.5 -44t84.5 -11q39 0 83 18.5t87 55.5t77 86t55.5 117t21.5 142q0 30 -5 59t-22 67t-45.5 65.5t-81 47t-122.5 19.5q-22 0 -54.5 -4.5t-63.5 -11.5t-53 -14q-14 9 -32 32 q44 130 88 280t74 257t43 143q11 0 71 1.5t88.5 2.5t86.5 3.5t93 4t78 4.5t71.5 6.5t45.5 6.5q9 -5 15.5 -13.5t6.5 -15.5q0 -26 -26 -77t-49 -83q-60 -13 -250 -17t-197 -6q-3 -6 -24.5 -78.5t-50.5 -169.5t-48 -148q35 13 107 27t114 14q66 0 122.5 -20.5t95 -54.5 t65.5 -78t39.5 -91t12.5 -94q0 -84 -31.5 -164t-83.5 -141.5t-117.5 -113t-134.5 -85t-134 -52t-116 -18.5q-158 0 -240 57q-7 9 -13.5 27.5t-6.5 35.5z" />
<glyph unicode="6" d="M185 394q0 146 71 325t211 339q67 76 167 152t226 144t255 112q6 0 10.5 -11.5t5.5 -24.5t0 -21q-84 -36 -157 -75.5t-150 -95t-140 -118.5t-120 -145.5t-97 -176.5q-54 -128 -74.5 -229t-20.5 -204q0 -56 9 -107t28.5 -96.5t55 -72.5t82.5 -27t100.5 33t100 89.5 t77 143.5t30.5 183q0 113 -53.5 180.5t-165.5 67.5q-52 0 -109 -32q-14 9 -14 23t40 42t96 51t92 23q85 0 153.5 -47t105.5 -124.5t37 -170.5q0 -96 -46 -195t-118.5 -173.5t-167 -122t-185.5 -47.5q-152 0 -243.5 109.5t-91.5 298.5z" />
<glyph unicode="7" d="M238 32q134 168 342 477.5t349 535.5l141 225h-529q-24 0 -48 -12t-42 -28t-38 -42.5t-31.5 -46t-27.5 -47.5q-3 -6 -16 -6q-29 0 -48 11q5 12 71 154.5t80 189.5h652q32 0 87 3.5t56 3.5q10 0 11 -6t-1 -14q-3 -11 -13 -29t-19.5 -33.5t-29.5 -45.5l-30 -45l-807 -1284 q-7 -7 -23 -7q-25 0 -57 15.5t-29 30.5z" />
<glyph unicode="8" d="M221 351q8 39 25.5 76.5t37 66.5t50 59.5t54 50.5t58.5 44t53 35.5t49 29.5l7.5 4.5t6 3.5t6.5 4q5 3 6.5 7.5t-2.5 6.5q-25 18 -48 42.5t-46.5 58.5t-37.5 72.5t-20 85.5t4 96q19 96 84.5 182t157 138t182.5 52q71 0 129.5 -23.5t97.5 -68.5t54 -109t0 -146 q-34 -172 -304 -335q-12 -3 -2 -13q45 -31 84 -71.5t71 -90.5t46 -110t2 -118q-21 -111 -96 -204t-178.5 -145.5t-208.5 -52.5q-175 0 -264.5 103.5t-57.5 268.5zM386 233q9 -55 35 -93t63 -58t79 -20q105 0 180.5 68.5t97.5 184.5q10 52 -5 106t-39.5 92t-62.5 76.5t-56 53 t-38 28.5l-2 2q-9 4 -11 4q-7 0 -9 -2q-100 -61 -154 -135t-74 -182q-13 -70 -4 -125zM586 1122q-30 -154 164 -292q9 -5 12 -5q6 0 13 5q164 102 199 278q12 68 0 130.5t-52 105t-101 42.5q-78 0 -144.5 -73t-90.5 -191z" />
<glyph unicode="9" d="M195 43q69 30 131 62.5t126.5 74t121.5 91t109 107t97 128t78 148.5q55 129 75.5 230t20.5 204q0 55 -9.5 106t-28.5 96.5t-54.5 73t-83.5 27.5q-47 0 -100 -33t-99.5 -90t-77.5 -143.5t-31 -182.5q0 -114 53.5 -181.5t165.5 -67.5q52 0 110 32q13 -9 13 -22.5t-40 -41.5 t-95.5 -51.5t-92.5 -23.5q-85 0 -153.5 47t-105.5 125t-37 170q0 96 46.5 195t119 173.5t167 122t185.5 47.5q100 0 175.5 -48.5t117.5 -141t42 -218.5q0 -145 -71.5 -324.5t-211.5 -339.5q-102 -116 -278 -228.5t-370 -179.5q-9 0 -13.5 22t-1.5 35z" />
<glyph unicode=":" horiz-adv-x="538" d="M43 78q0 64 48 114t107 50q23 0 42.5 -8.5t32.5 -23.5t20.5 -35t7.5 -43q0 -64 -48 -114t-107 -50q-46 0 -74.5 31.5t-28.5 78.5zM189 837q0 64 49 113t109 49q45 0 73.5 -30.5t28.5 -77.5q0 -64 -48 -115t-107 -51q-46 0 -75.5 32t-29.5 80z" />
<glyph unicode=";" horiz-adv-x="574" d="M-39 -203q15 7 37.5 23t50.5 41.5t47.5 61.5t19.5 72q0 48 -9.5 78t-19 53.5t-9.5 53.5q0 51 36.5 82.5t88.5 31.5q20 0 38.5 -7t25.5 -16q7 -17 7 -54q0 -146 -82 -281q-43 -70 -101.5 -119.5t-97.5 -65.5q-7 0 -19.5 16.5t-12.5 29.5zM226 837q0 64 49 113t108 49 q46 0 74.5 -30.5t28.5 -77.5q0 -64 -48.5 -115t-106.5 -51q-31 0 -55 14.5t-37 40t-13 57.5z" />
<glyph unicode="&#x3c;" horiz-adv-x="1019" d="M27 463q0 59 53 86l868 427q5 2 10 2t10.5 -27.5t5.5 -52.5q0 -5 -1 -13.5t-4 -19t-7 -12.5l-764 -376l625 -384q5 -2 5 -11q0 -21 -24 -67.5t-33 -46.5q-5 0 -9 2l-712 434q-23 15 -23 59z" />
<glyph unicode="=" horiz-adv-x="1276" d="M78 280q0 11 19.5 62.5t32.5 51.5h948q14 0 14 -11q0 -3 -2.5 -10.5t-7 -18.5t-9 -21.5t-11.5 -26t-11 -26.5q-2 -3 -5 -6l-4.5 -4.5t-3 -2t-2.5 -0.5h-1h-946h-1.5t-2.5 0.5t-3.5 2t-2.5 4.5t-1 6zM144 604q0 9 18.5 61.5t31.5 52.5h946q14 0 14 -11t-39 -103 q-3 -6 -7.5 -9.5t-7.5 -3.5h-3h-944q-9 0 -9 13z" />
<glyph unicode="&#x3e;" horiz-adv-x="1021" d="M-16 75q0 11 11 18l778 384l-620 376q-5 2 -5 9q0 13 25.5 65.5t33.5 52.5q1 0 2.5 -0.5t3.5 -1.5l4 -2l700 -427q27 -15 27 -45q0 -6 -2 -16t-6.5 -27t-16.5 -33t-30 -24l-878 -434q-9 -4 -13 -4q-14 0 -14 109z" />
<glyph unicode="?" horiz-adv-x="729" d="M91 73q0 32 12.5 61.5t33.5 51t48 34.5t54 13q45 0 74 -30.5t29 -74.5q0 -62 -48.5 -111t-106.5 -49q-29 0 -51 14t-33.5 37.5t-11.5 53.5zM150 645q0 46 17 83t39 60t56 46q188 128 265 183q105 73 105 173q0 44 -15.5 75t-42 46.5t-61.5 15.5q-28 0 -49.5 -11 t-35.5 -26t-27.5 -30.5t-32 -26.5t-42.5 -11q-23 0 -39.5 12.5t-24 32t-10.5 37.5t-3 37q4 13 23 29.5t46 32t61.5 26t65.5 10.5q82 0 153 -44.5t110.5 -112t39.5 -137.5q0 -49 -10 -89.5t-32 -77.5t-58 -71q-31 -28 -124.5 -86t-138.5 -89q-42 -29 -58.5 -59.5t-16.5 -77.5 q0 -30 18 -63t36.5 -52t34.5 -31q0 -7 -7.5 -19t-15.5 -17q-21 0 -58 18.5t-75 49t-65.5 75t-27.5 89.5z" />
<glyph unicode="@" horiz-adv-x="1730" d="M66 321q0 141 33.5 273t93 240.5t143 199t182 152.5t212 96t230.5 34q123 0 227 -35t178 -96.5t125.5 -146t76 -184.5t24.5 -211q0 -86 -14.5 -163t-40.5 -138t-61 -113t-76 -90.5t-84 -68t-87 -47.5t-84.5 -27.5t-76.5 -9.5q-78 0 -119 44t-41 102q0 32 12 91 q3 15 11 73q-17 -30 -41.5 -66t-61 -80t-73.5 -79t-80.5 -58.5t-80.5 -23.5q-93 0 -147 75.5t-54 197.5q0 89 27.5 180.5t74 171t111 150t136.5 120.5t152.5 79t157.5 29q86 0 167 -30l-146 -723q-9 -41 -8 -72.5t9.5 -53.5t24 -33.5t35.5 -11.5q62 0 128.5 51.5 t117.5 129.5t84 175.5t33 184.5q0 190 -62.5 330t-188 218.5t-303.5 78.5q-96 0 -192.5 -30.5t-184 -85.5t-163 -137.5t-131 -182t-87 -223.5t-31.5 -258q0 -133 59 -255t153 -196q58 -46 105 -66q-19 -16 -73 -16q-39 0 -89 34t-80 68q-87 103 -124.5 209.5t-37.5 223.5z M561 342q0 -221 116 -221q55 0 122.5 79.5t121.5 196t75 225.5l48 244q-14 16 -45.5 25.5t-56.5 9.5q-64 0 -133.5 -51t-123.5 -130t-89 -180.5t-35 -197.5z" />
<glyph unicode="A" horiz-adv-x="1336" d="M-127 1q0 7 3 21q5 24 12 37q26 0 69 12t61 32q20 21 38 45t37 54.5t32 53t35 61.5l629 1129q14 25 44.5 45.5t46.5 20.5q5 0 11 -7l197 -1218q5 -32 11.5 -72.5t9.5 -59.5t4 -23q3 -15 14 -28t26 -20.5t30.5 -12.5t31.5 -7.5t25.5 -3.5t15.5 -1q3 -8 3 -19v-5 q0 -6 -1 -12q-4 -23 -9 -30q-20 1 -74 4.5t-93 5.5t-81 2q-34 0 -65.5 -1.5t-53 -3t-55 -3.5t-63.5 -4q-7 9 -2 33.5t15 32.5q40 0 69.5 8t45 24t15.5 39q0 68 -6 112l-51 342h-453q-109 -198 -162 -299q-66 -129 -66 -171q0 -17 19 -28.5t46 -17t46.5 -7.5t29.5 -2 q3 -5 -0.5 -30t-8.5 -36q-31 2 -66 5t-65.5 5t-71.5 2q-43 0 -75.5 -2t-72 -5t-75.5 -5q-2 2 -2 8zM438 659h399l-87 561z" />
<glyph unicode="B" horiz-adv-x="1290" d="M-15 8q1 7 3 18q6 24 14 33q32 0 89 10t64 27q3 6 6.5 15t6 16.5t5.5 20t5 20t5.5 23.5t5 23t5 26t4.5 24l190 974q22 114 22 159v10q0 17 -52 26.5t-87 9.5q-5 8 -1.5 33t13.5 33q22 -1 78.5 -4.5t94.5 -5t75 -1.5q36 0 134.5 2.5t166.5 2.5q75 0 138 -16.5t112.5 -49 t77.5 -87t28 -126.5q0 -246 -274 -390q31 -2 64 -18t63.5 -44.5t54.5 -65.5t38.5 -87t14.5 -104q0 -114 -51 -212t-140.5 -165.5t-213.5 -106t-267 -38.5h-488q-4 5 -4 15zM363 120q0 -17 4 -22q17 -25 53.5 -32t106.5 -7q88 0 162.5 30t128.5 85t84.5 139.5t30.5 188.5v2 q0 18 -0.5 29t-3.5 34t-8 39t-16.5 39t-27 39.5t-40 34.5t-56 29t-75 18t-95.5 7h-130l-100 -513q-5 -20 -9.5 -52.5t-7.5 -67.5q-1 -12 -1 -20zM497 844h214q76 0 139.5 45.5t100 125.5t36.5 175q0 51 -13.5 93t-42.5 77.5t-81 55.5t-123 20q-99 0 -111 -22q-3 -5 -5.5 -11 t-5 -14.5t-5 -16t-5 -19t-4.5 -20t-5 -22.5t-4.5 -22t-4.5 -23.5t-5 -22.5z" />
<glyph unicode="C" horiz-adv-x="1470" d="M135 604q0 141 35.5 268t99 227t151 181t189.5 134q104 52 218 80q99 24 201 24h8h23q62 -1 133 -11t115.5 -20t118.5 -28q-14 -249 -23 -333q0 -5 -5.5 -8t-12.5 -3q-29 0 -52 11v18q0 80 -40 146q-45 74 -125 116t-175 42q-133 0 -250.5 -57t-205.5 -159 q-88 -104 -138 -256q-49 -147 -49 -319v-7v-7q0 -85 15 -166.5t50.5 -160t88 -137.5t132.5 -95t179 -36q300 0 481 346q13 0 29 -4.5t26 -8.5l9 -5q-7 -36 -73.5 -164.5t-90.5 -147.5q-90 -47 -191 -64.5t-254 -17.5q-135 0 -251.5 50t-196 134.5t-124.5 198t-45 239.5z" />
<glyph unicode="D" horiz-adv-x="1559" d="M-15 8q1 7 3 18q6 24 14 33q32 0 89 10t64 27q3 6 6.5 15t6 16.5t5.5 20t5 20t5.5 23.5t5 23t5 26t4.5 24l190 974q1 5 2 14q21 101 21 141q0 8 -1 14q-1 16 -54 26t-85 10q-5 8 -1.5 33t13.5 33q22 -1 78.5 -4.5t94.5 -5t75 -1.5q40 0 150 1t158 1q121 0 223 -25.5 t177 -72t130.5 -113t83 -149t33.5 -178.5l2 -44q0 -75 -17 -156q-15 -75 -37.5 -144.5t-56 -139t-78 -130t-100.5 -115.5t-127 -98t-153.5 -75t-184 -49t-214.5 -18h-531q-4 5 -4 15zM361 106q0 -12 2 -15q14 -32 166 -32q99 0 192 25t178.5 78t154.5 129t120.5 184 t77.5 239q24 118 24 215q0 30 -2 58q-10 119 -48 204.5t-106.5 140.5t-155.5 81t-193 26q-23 0 -50 -1.5t-62.5 -7.5t-40.5 -16.5t-10 -23.5t-10 -34l-7.5 -31.5t-8.5 -41.5t-7 -38l-194 -990q-7 -31 -15 -93q-5 -38 -5 -56z" />
<glyph unicode="E" horiz-adv-x="1263" d="M-14 10q-1 7 1 16q4 24 14 33q7 0 19.5 1t29 3t34 5t32.5 7t26 9.5t14 11.5t6.5 15t6 16.5t5.5 20t5 20t5.5 23.5t5 23t5 26t4.5 24l190 974q21 107 21 153q0 9 -1 16q-1 16 -54 26t-85 10q-5 8 -0.5 33t14.5 33q22 -1 78.5 -4.5t94.5 -5t75 -1.5q95 0 330 8t354 8 q-3 -16 -3 -63q0 -39 2 -97q4 -132 4 -150q-12 -12 -42 -12q-25 0 -25 16q-4 67 -19.5 112.5t-43 70.5t-60.5 35t-77 10h-183q-22 0 -49 -1t-61.5 -7t-39.5 -17q-24 -48 -46 -164l-84 -438q-2 -7 23 -10t66 -3h112h63.5t49 4t37.5 6t28 12.5t22 17t18 26t17 33t20 44.5 q6 13 9 21q6 16 37 16q24 0 31 -12l-82 -430q-9 -10 -36 -10q-26 0 -30 19q-5 91 -10.5 119.5t-18.5 39.5q-24 18 -222 18q-152 0 -157 -20l-89 -451q-20 -100 -20 -137q0 -17 4 -21q11 -11 30.5 -16t41 -6t74.5 -1h100q175 0 283 71q101 67 178 230q7 14 34 14 q16 0 31.5 -4.5t18.5 -9.5q-14 -28 -64 -120t-79.5 -152.5t-45.5 -105.5q-108 0 -340 4.5t-380 4.5q-53 0 -134 -3.5t-119 -3.5q-4 5 -4 17z" />
<glyph unicode="F" horiz-adv-x="1158" d="M-14 10q-1 7 1 16q4 24 14 33q7 0 19.5 1t29 3t34 5t32.5 7t26 9.5t14 11.5t6.5 15t6 16.5t5.5 20t5 20t5.5 23.5t5 23t5 26t4.5 24l190 974q21 107 21 153q0 9 -1 16q-1 16 -54 26t-85 10q-5 8 -0.5 33t14.5 33q22 -1 78.5 -4.5t94.5 -5t75 -1.5q95 0 330 8t354 8 q-3 -16 -3 -63q0 -39 2 -97q4 -132 4 -150q-12 -12 -42 -12q-25 0 -25 16q-4 67 -19.5 112.5t-43 70.5t-60.5 35t-77 10h-183q-22 0 -49 -1t-61.5 -7t-39.5 -17q-24 -48 -46 -164l-84 -438q-2 -7 23 -10t66 -3h112h63.5t49 4t37.5 6t28 12.5t22 17t18 26t17 33t20 44.5 q6 13 9 21q6 16 37 16q24 0 31 -12l-82 -430q-9 -10 -36 -10q-26 0 -30 19q-5 91 -10.5 119.5t-18.5 39.5q-24 18 -222 18q-152 0 -157 -20l-84 -436q-22 -107 -22 -153q0 -9 1 -15q2 -16 63.5 -26.5t96.5 -10.5q5 -8 0.5 -33t-14.5 -33q-216 12 -267 12q-52 0 -132 -6 t-118 -6q-4 5 -4 17z" />
<glyph unicode="G" horiz-adv-x="1589" d="M135 604q0 141 35.5 268t99 227t151 181t190 133.5t217.5 80.5q103 24 209 24h23q62 -1 133 -11t115.5 -20t118.5 -28q-2 -36 -6.5 -102.5t-9.5 -137t-7 -93.5q0 -5 -5.5 -8t-12.5 -3q-29 0 -52 11v18q0 78 -40 146q-45 74 -125 116t-175 42q-133 0 -250.5 -57 t-205 -159.5t-138.5 -255.5q-49 -149 -49 -326v-7q0 -84 15.5 -166t51 -160.5t87.5 -137.5t130.5 -95t173.5 -36q74 0 142.5 23.5t113.5 53.5q19 13 23 39l45 235q1 5 3 14q21 104 21 144q0 6 -1 11q-2 16 -59.5 26t-91.5 10q-5 8 -1.5 33t13.5 33q23 -1 78 -4.5t93 -5 t75 -1.5t76 1.5t95 5t80 4.5q5 -5 5 -18q0 -6 -1 -14q-4 -25 -13 -34q-31 0 -85 -10t-61 -26q-3 -7 -6.5 -15.5t-6 -16t-6 -20.5t-5 -20.5t-5 -23.5t-5 -22.5t-5 -25.5t-4.5 -25l-32 -162q-7 -21 -1.5 -50.5t5.5 -31.5q0 -25 -50 -50q-6 -3 -17 -9q-51 -27 -83.5 -41.5 t-93 -34.5t-136 -29t-169.5 -9q-129 0 -242.5 50t-192 134.5t-124 198.5t-45.5 239z" />
<glyph unicode="H" horiz-adv-x="1564" d="M-14 10q-1 7 1 16q4 24 14 33q7 0 19.5 1t29 3t34 5t32.5 7t26 9.5t14 11.5t6.5 15t6 16.5t5.5 20t5 20t5.5 23.5t5 23t5 26t4.5 24l190 974q21 107 21 153q0 9 -1 16q-1 16 -54 26t-85 10q-5 8 -0.5 33t14.5 33q22 -1 78.5 -4.5t94.5 -5t75 -1.5t76 1.5t95 5t80 4.5 q6 -9 0.5 -33t-14.5 -33q-32 0 -88.5 -10t-63.5 -26q-23 -46 -44 -169l-84 -426h666l84 426q2 13 7 40.5t6.5 38l5 35t3 30.5t-0.5 25q-2 16 -55 26t-85 10q-5 8 -0.5 33t14.5 33q22 -1 78.5 -4.5t95 -5t75.5 -1.5t75.5 1.5t94.5 5t80 4.5q4 -5 4 -15q0 -8 -2 -18 q-6 -24 -15 -33q-17 0 -48.5 -3.5t-65.5 -12.5t-39 -20q-3 -6 -5.5 -12.5t-4.5 -12.5t-4.5 -15t-4.5 -15.5t-4.5 -17t-4 -17.5t-4 -19t-4 -19.5t-4 -20.5t-3.5 -20l-190 -974q0 -4 -2 -13q-21 -101 -21 -141q0 -8 1 -14q1 -17 54 -27t85 -10q5 -8 0.5 -33t-14.5 -33 q-23 1 -78 4.5t-93 5.5t-75 2t-76 -2t-95 -5.5t-80 -4.5q-6 9 -1.5 33t12.5 33q17 0 49 3.5t66.5 12.5t39.5 21q3 6 6 12.5t6 15.5t5 16.5t4.5 18.5t4.5 18.5t4.5 21t4 21t4.5 23t5 21.5l89 456h-666l-89 -456q-1 -4 -3 -13q-21 -104 -21 -144q0 -7 1 -11q2 -17 55 -27 t84 -10q6 -8 1.5 -33t-14.5 -33q-24 1 -78 4.5t-91.5 5.5t-74.5 2t-76 -2t-96.5 -5.5t-80.5 -4.5q-4 5 -4 17z" />
<glyph unicode="I" horiz-adv-x="713" d="M-14 10q-1 7 1 16q4 24 14 33q7 0 19.5 1t29 3t34 5t32.5 7t26 9.5t14 11.5t6.5 15t6 16.5t5.5 20t5 20t5.5 23.5t5 23t5 26t4.5 24l190 974q21 107 21 153q0 9 -1 16q-1 16 -54 26t-85 10q-5 8 -0.5 33t14.5 33q22 -1 78.5 -4.5t94.5 -5t75 -1.5t76 1.5t95 5t80 4.5 q3 -5 3 -13q-1 -8 -3 -20q-6 -24 -14 -33q-32 0 -88.5 -10t-63.5 -26q-4 -7 -7 -15.5t-5.5 -16t-6 -20.5t-5.5 -20t-5 -23.5t-4.5 -23t-5.5 -25.5t-5 -25l-189 -974q-1 -4 -3 -13q-21 -104 -21 -144q0 -7 1 -11q2 -17 55 -27t84 -10q6 -8 1.5 -33t-14.5 -33q-24 1 -78 4.5 t-91.5 5.5t-74.5 2t-76 -2t-96.5 -5.5t-80.5 -4.5q-4 5 -4 17z" />
<glyph unicode="J" horiz-adv-x="713" d="M-246 -502l2 14q77 24 136 66t104.5 101t81 145t62.5 187t52 238l182 989q2 13 7 40.5t6.5 38l5 35t2.5 30.5t-1 25q-1 16 -54 26t-85 10q-5 8 -0.5 33t14.5 33q22 -1 78.5 -4.5t95 -5t75 -1.5t75.5 1.5t95 5t80 4.5q4 -5 4 -15q0 -7 -2 -18q-6 -24 -15 -33 q-32 0 -89 -10t-64 -26q-23 -46 -43 -169l-185 -974q-21 -109 -51.5 -206t-67 -172t-77.5 -137.5t-85 -107.5t-88 -79t-87.5 -54t-82.5 -29.5t-74 -9.5q-7 10 -7 29z" />
<glyph unicode="K" horiz-adv-x="1399" d="M-12 10q-1 7 1 16q4 24 14 33q32 0 89 10t64 27q3 6 6.5 15t6 16.5t5.5 20t5 20t5.5 23.5t5 23t5 26t4.5 24l190 974q1 5 2 14q21 101 21 141q0 8 -1 14q-1 16 -54 26t-85 10q-5 8 -0.5 33t14.5 33q22 -1 78.5 -4.5t95 -5t75 -1.5t75 1.5t93.5 5t80 4.5q7 -8 2 -32.5 t-13 -33.5q-33 0 -90.5 -10t-64.5 -26q-4 -7 -7 -15.5t-5.5 -16t-6 -20.5t-5.5 -20t-5 -23.5t-4.5 -23t-5.5 -25.5t-5 -25l-89 -463q73 43 283 226q26 23 73.5 64t59 51t41 36.5t38 35.5t31.5 32t40.5 42t47.5 51q38 44 43 71q4 20 -8 33t-35.5 17.5t-36.5 5.5t-27 1 q-4 10 0.5 31.5t13.5 36.5q24 -1 74 -5t90 -6t75 -2q55 0 133.5 6t98.5 7q1 -4 1 -9q-1 -12 -5 -31q-6 -28 -14 -28q-1 0 -13.5 -1t-24.5 -2.5t-31 -4.5t-37.5 -9t-39 -14.5t-41 -22t-38.5 -30.5q-65 -62 -123 -116t-120 -108.5t-103 -90.5t-119.5 -103t-120.5 -105 q-18 -14 -5 -36q68 -113 92.5 -152.5t80 -128.5t86 -135.5t73.5 -108t81 -109.5q37 -46 84 -72t125 -33q6 -7 -1 -31t-12 -35q-236 0 -297 25q-75 32 -125 98q-54 75 -365 577q-2 7 -18 7q-11 0 -21 -5l-84 -431q-21 -104 -21 -150q0 -11 1 -18q1 -17 54 -27t85 -10 q5 -8 0.5 -33t-14.5 -33q-23 1 -78 4.5t-93 5.5t-75 2t-76 -2t-95 -5.5t-80 -4.5q-4 5 -4 17z" />
<glyph unicode="L" horiz-adv-x="1208" d="M-15 8q1 7 3 18q6 24 14 33q32 0 89 10t64 27q3 6 6.5 15t6 16.5t5.5 20t5 20t5.5 23.5t5 23t5 26t4.5 24l190 974q1 5 2 14q21 101 21 141q0 8 -1 14q-1 16 -54 26t-85 10q-5 8 -1.5 33t13.5 33q22 -1 78.5 -4.5t94.5 -5t75 -1.5t76 1.5t95 5t80 4.5q6 -9 0.5 -33 t-14.5 -33q-32 0 -88.5 -10t-63.5 -26q-4 -7 -7 -15.5t-5.5 -16t-6 -20.5t-5.5 -20t-5 -23.5t-4.5 -23t-5.5 -25.5t-5 -25l-194 -983q-21 -109 -21 -146q0 -15 3 -18q11 -11 30.5 -16t41 -6t74.5 -1h121q62 0 128.5 16t117.5 46q111 63 194 239q7 14 34 14q16 0 31.5 -4.5 t18.5 -9.5q-14 -28 -64 -120t-79.5 -152.5t-45.5 -105.5q-108 0 -340 4.5t-380 4.5q-53 0 -134 -3.5t-119 -3.5q-4 5 -4 15z" />
<glyph unicode="M" horiz-adv-x="1910" d="M-56 -2q0 8 3 24q4 24 12 37q34 0 98 11t80 30q29 34 48 114q44 194 89 393.5t76.5 343.5t52.5 240.5t23 112.5q10 48 10 75q0 10 -1 16q-1 18 -56 33t-83 15q-1 5 -0.5 15t2.5 20.5t5.5 19.5t6.5 11q132 -9 205 -9q89 0 185 9q6 -63 63.5 -361.5t111.5 -564.5t53 -266 t127 229.5t257 459.5l129 230q26 46 62.5 114.5t60.5 113.5l23 45q132 -9 159 -9q101 0 210 9l-4 -66q-30 0 -89.5 -13t-70.5 -28q-18 -33 -27 -86l-174 -997q-19 -108 -19 -174q0 -27 3 -47t55.5 -29.5t84.5 -9.5q4 -17 0.5 -38t-7.5 -28q-20 1 -75.5 4.5t-94.5 5.5t-81 2 q-44 0 -83.5 -2t-90.5 -5t-84 -5q-2 5 2 29.5t12 36.5q25 0 74.5 7.5t69.5 17.5q18 11 36 96q3 14 31.5 190t74.5 463.5t74 456.5q-13 -21 -180 -315.5t-327 -578.5l-161 -284q-13 -23 -49.5 -68.5t-52.5 -48.5q-2 -1 -5 -0.5t-4.5 1.5t-4.5 2t-5 2l-260 1332 q-29 -139 -65.5 -308t-67.5 -311t-58.5 -264.5t-44 -197.5t-17.5 -80q-5 -26 -5 -49q0 -11 1 -22q3 -15 41.5 -25t70 -13t47.5 -3q4 -8 2.5 -21.5t-5 -27t-6.5 -17.5q-28 2 -69.5 5t-75.5 5t-76 2q-44 0 -82 -2t-86.5 -5t-82.5 -5q-1 1 -1 5z" />
<glyph unicode="N" horiz-adv-x="1668" d="M-30 6q1 6 2 15q4 21 14 38q30 0 95 14t79 32q18 25 29 57.5t23 97.5l192 989q12 70 14 97.5t-5 57.5q-6 18 -64 28.5t-91 10.5q-5 20 -1 38.5t12 27.5q30 -1 60 -3t47 -3t39.5 -2t47.5 -1q68 0 187 9q30 -75 147 -283.5t257 -458.5t209 -398l169 864q12 66 14 100 q0 5 1 10q0 29 -8 55q-8 21 -62 33t-91 12q-5 13 -2 35t9 31q168 -9 232 -9q35 0 66 1t51.5 2t56.5 3t63 3q4 -5 4 -18v-9q-2 -22 -13 -39q-30 0 -93.5 -12.5t-77.5 -30.5q-18 -25 -27.5 -56t-22.5 -99l-180 -928q-42 -220 -57 -319q-9 -9 -39 -9q-14 0 -32 14.5t-29 37.5 l-684 1256l-201 -1035q-9 -48 -12.5 -71t-3.5 -45.5t7 -40.5q4 -11 35.5 -22t65.5 -17.5t52 -6.5q4 -14 0.5 -34t-9.5 -32q-25 2 -73 5t-85.5 5t-79.5 2q-43 0 -78 -2t-78 -5t-78 -5q-3 4 -3 13z" />
<glyph unicode="O" horiz-adv-x="1618" d="M139 622q0 129 31 248.5t86 217t131 178.5t165.5 135.5t190 84.5t203.5 30q133 0 243.5 -49.5t185 -136t116 -205t41.5 -254.5q0 -131 -29 -251.5t-82 -218.5t-127.5 -178t-163 -134.5t-191.5 -84t-212 -29.5q-135 0 -247 50.5t-186 138t-114.5 205.5t-40.5 253zM353 611 q0 -59 5.5 -114.5t18.5 -113t33 -107t51.5 -93.5t71.5 -75t95 -49t120 -18q85 0 163 35t140 96t112.5 143.5t84 177.5t52 198t18.5 205q0 50 -5 99.5t-17 105.5t-31 104.5t-50 94t-70.5 77.5t-96 51.5t-122.5 19.5q-86 0 -170 -40.5t-156 -117t-127.5 -177.5t-87.5 -231.5 t-32 -270.5z" />
<glyph unicode="P" horiz-adv-x="1165" d="M-14 10q-1 7 1 16q4 24 14 33q7 0 19.5 1t29 3t34 5t32.5 7t26 9.5t14 11.5t6.5 15t6 16.5t5.5 20t5 20t5.5 23.5t5 23t5 26t4.5 24l190 974q21 107 21 153q0 9 -1 16q-1 16 -54 26t-85 10q-5 8 -0.5 33t14.5 33q216 -11 253 -11q35 0 105.5 2.5t138.5 2.5q182 0 297 -95 t115 -250q0 -106 -44 -202.5t-117 -164.5t-170 -108t-200 -40q-33 0 -63 7.5t-39 15.5q-5 4 -12 16.5t-7 19.5q0 5 9 9q19 -9 76 -9q63 0 128 31t117.5 85t86 135t33.5 173q0 310 -265 310q-97 0 -109 -22q-3 -5 -5.5 -11t-5 -14.5t-5 -16t-5 -19t-4.5 -20t-5 -22.5 t-4.5 -22t-4.5 -23.5t-5 -22.5l-191 -979q-22 -107 -22 -153q0 -9 1 -15q2 -17 55 -27t84 -10q6 -8 1.5 -33t-14.5 -33q-23 1 -78 4.5t-93.5 5.5t-75.5 2t-75.5 -2t-94.5 -5.5t-80 -4.5q-4 5 -4 17z" />
<glyph unicode="Q" horiz-adv-x="1618" d="M139 622q0 129 31 248.5t86 217t131 178.5t165.5 135.5t190 84.5t203.5 30q133 0 243.5 -49.5t185 -136t116 -205t41.5 -254.5q0 -172 -50 -324.5t-138 -265t-207 -188t-257 -102.5q37 -22 87 -55t78.5 -50t70.5 -36t88.5 -27t106.5 -8q54 0 117.5 11t89.5 19 q12 0 28 -11.5t16 -18.5q-247 -125 -401 -125q-63 0 -126.5 23.5t-122 62.5t-116.5 80t-132 84.5t-144 68.5q-179 64 -280 229.5t-101 383.5zM353 611q0 -59 5.5 -114.5t18.5 -113t33 -107t51.5 -93.5t71.5 -75t95 -49t120 -18q85 0 163 35t140 96t112.5 143.5t84 177.5 t52 198t18.5 205q0 50 -5 99.5t-17 105.5t-31 104.5t-50 94t-70.5 77.5t-96 51.5t-122.5 19.5q-86 0 -170 -40.5t-156 -117t-127.5 -177.5t-87.5 -231.5t-32 -270.5z" />
<glyph unicode="R" horiz-adv-x="1320" d="M-14 10q-1 7 1 16q4 24 14 33q7 0 19.5 1t29 3t34 5t32.5 7t26 9.5t14 11.5t6.5 15t6 16.5t5.5 20t5 20t5.5 23.5t5 23t5 26t4.5 24l190 974q21 107 21 153q0 9 -1 16q-1 16 -54 26t-85 10q-5 8 -0.5 33t14.5 33q216 -11 255 -11q36 0 134.5 2.5t166.5 2.5 q59 0 111.5 -13t97.5 -39.5t77.5 -64.5t51 -90.5t18.5 -114.5q0 -79 -33.5 -153.5t-88.5 -131t-119.5 -99.5t-132.5 -67q53 -145 123.5 -299t117.5 -235q41 -72 85 -101t128 -36q2 -4 2 -12q0 -4 -1 -9q-4 -16 -8.5 -28t-6.5 -17q-53 0 -90.5 1.5t-80 5t-72.5 11.5t-59 20 t-49.5 31.5t-33.5 44.5q-54 105 -120.5 259t-119.5 297q-9 28 -59 28h-112l-82 -427q-1 -4 -3 -13q-21 -104 -21 -144q0 -7 1 -11q2 -17 55 -27t84 -10q6 -8 1.5 -33t-14.5 -33q-24 1 -78 4.5t-91.5 5.5t-74.5 2t-76 -2t-96.5 -5.5t-80.5 -4.5q-4 5 -4 17zM480 759h114 q39 0 78.5 8t79 24.5t75 40.5t66 58t52.5 74.5t35 92.5t13 110q0 34 -4.5 65t-21.5 70t-44 67t-77.5 47.5t-117.5 19.5q-99 0 -111 -22q-3 -5 -5.5 -11t-5 -14.5t-5 -16t-5 -19t-4.5 -20t-5 -22.5t-4.5 -22t-4.5 -23.5t-5 -22.5z" />
<glyph unicode="S" horiz-adv-x="1076" d="M76 375q0 31 2 45q4 6 23 9.5t34 3.5t22 -13q0 -33 7.5 -71.5t22.5 -80.5t41 -80.5t58.5 -69.5t79.5 -49.5t101 -18.5q77 0 142 33t106.5 99t41.5 153q0 35 -7 66.5t-15.5 55.5t-28 51t-32.5 43t-41.5 42t-43 38t-49.5 39q-24 20 -69 52t-72.5 52.5t-62.5 55.5t-55 68 t-34 82t-14 105q0 76 29 145.5t78 121t111 89.5t129.5 57.5t130.5 19.5q47 0 92.5 -5.5t69 -10.5t77 -19t74.5 -19q-5 -56 -21 -165.5t-27 -163.5q-2 -16 -23 -16q-32 0 -48 16q1 21 1 41q0 116 -44 188q-52 84 -169 84q-67 0 -122.5 -24.5t-89.5 -63.5t-52.5 -84.5 t-18.5 -89.5q0 -39 7.5 -73t24 -63.5t33 -52t44.5 -47t48 -40t54 -41t52 -39.5q18 -15 53 -40t57 -42.5t52.5 -44t50 -52t38 -57.5t27.5 -71t9 -83q0 -82 -30.5 -156t-82 -128t-118 -94t-141 -60t-148.5 -20q-170 0 -335 96q-20 80 -26 196q-3 63 -3 101z" />
<glyph unicode="T" horiz-adv-x="1338" d="M135 1140q64 163 132 392q18 9 45 -7q19 -11 54.5 -21.5t59.5 -10.5h828q24 0 68.5 12t66.5 23q16 8 24 8q1 0 1 1q7 0 16 -5q-21 -250 -21 -392q-6 -6 -19.5 -12t-26.5 -4q-23 0 -27 11v13q0 118 -34 190q-36 76 -112 76h-269l-226 -1150q-1 -4 -2 -13 q-21 -101 -21 -141q0 -8 1 -14q1 -12 31.5 -21t60.5 -12.5t47 -3.5q5 -8 1.5 -33t-13.5 -33q-23 1 -78 4.5t-93 5.5t-75 2t-76 -2t-96.5 -5.5t-80.5 -4.5q-6 9 -0.5 33t14.5 33q32 0 88.5 10t63.5 27q4 6 7 15l5.5 16.5t6 20t5.5 20t5 23.5t4.5 23t5.5 26t5 24l225 1150 h-273q-51 0 -99.5 -37t-87.5 -98t-71 -144q-7 -11 -32 -11q-26 -3 -38 16z" />
<glyph unicode="U" horiz-adv-x="1507" d="M208 422q0 70 15 150l130 666q1 5 3 14q21 104 21 144q0 7 -1 11q-1 16 -54 26t-85 10q-5 8 -0.5 33t14.5 33q23 -1 78 -4.5t93 -5t75 -1.5t76 1.5t95 5t80 4.5q6 -9 0.5 -33t-14.5 -33q-32 0 -88.5 -10t-64.5 -26q-3 -6 -5.5 -13t-5.5 -15.5t-5 -16t-4.5 -19t-4.5 -19 t-5 -21t-4 -20.5t-4.5 -22.5t-4.5 -22.5l-109 -563q-23 -118 -23 -209v-7q0 -114 34 -185q75 -151 276 -151q42 0 79.5 5.5t74 17.5t69 32.5t62.5 48.5t56 66.5t49 87t42.5 110t34.5 134.5l121 618q10 48 13 70.5t3 45.5t-7 41q-6 16 -59.5 31t-83.5 15q-4 14 -0.5 33.5 t9.5 32.5q27 -2 71 -5t79.5 -5t77.5 -2q43 0 77.5 2t77 5t77.5 5q3 -5 3 -16v-12q-2 -21 -14 -38q-30 0 -96 -14t-80 -32q-18 -25 -27.5 -56t-22.5 -99l-121 -616q-33 -169 -90 -291.5t-137.5 -198.5t-181.5 -112t-227 -36q-119 0 -211 42.5t-149 121.5q-77 110 -77 267z " />
<glyph unicode="V" horiz-adv-x="1358" d="M140 1446q0 4 2 12q2 16 6.5 32.5t6.5 18.5q33 -1 79.5 -4.5t83.5 -5t81 -1.5q48 0 264 11q2 -11 -3.5 -37.5t-11.5 -28.5q-10 0 -28.5 -3t-44 -10t-45.5 -23.5t-24 -38.5q-3 -12 -3 -34q0 -45 12 -128q13 -93 46.5 -318t61.5 -409t29 -187q4 5 132.5 230.5t254.5 449.5 l126 223q23 37 39.5 81.5t22.5 77.5q4 26 -9.5 45t-37 27.5t-43 12.5t-31.5 4q-7 3 -3 30.5t14 35.5q20 -1 69.5 -4.5t84.5 -5t70 -1.5q43 0 74.5 1.5t67.5 5t67 4.5q1 -3 1 -9q0 -10 -4 -28q-7 -29 -13 -29q-22 0 -70 -15t-78 -44q-11 -12 -30 -37.5t-39.5 -57.5 t-41.5 -67.5t-39 -67.5l-623 -1081q-43 -78 -95 -78q-5 0 -7.5 6.5t-4.5 18.5l-2 12q-29 176 -85 539t-95 601q-22 141 -55 219q-10 24 -55 38t-73 14q-1 0 -1 3z" />
<glyph unicode="W" horiz-adv-x="1917" d="M148 1449q0 4 1 9q2 16 7 32.5t7 18.5q30 -1 62 -3.5t52.5 -4t51 -2.5t64.5 -1q42 0 82 1.5t98.5 5t77.5 4.5q2 -11 -5 -37.5t-13 -28.5q-10 0 -28.5 -3t-44 -10t-45.5 -23.5t-24 -38.5q-1 -4 -1 -16q0 -30 6 -109q13 -233 68 -912l522 1103q17 31 45 53t46 22 q7 0 9.5 -6.5t9.5 -29.5q10 -119 134 -1145l390 867q44 96 55 159q4 21 -6 37.5t-26 26t-36.5 15.5t-35 8t-24.5 2q-7 3 -1.5 30.5t15.5 35.5q18 -1 69.5 -4.5t86.5 -5t70 -1.5q43 0 74.5 1.5t67.5 5t67 4.5q1 -3 1 -9q0 -10 -4 -28q-7 -29 -13 -29q-17 0 -66 -17t-82 -42 q-46 -37 -109 -173l-532 -1138q-13 -30 -43.5 -54t-51.5 -24q-6 0 -10 13.5t-4 23.5q-19 165 -139 1133l-520 -1092q-13 -30 -42.5 -54t-50.5 -24q-6 0 -11 14t-5 23l-110 1181q-1 10 -2.5 32t-2 30t-2 25t-3 24.5t-4.5 20t-6 20t-8 16.5t-11 17q-15 20 -53.5 32.5 t-62.5 12.5q-1 0 -1 6z" />
<glyph unicode="X" horiz-adv-x="1413" d="M-136 -1q0 10 6 28q8 25 11 32q12 0 35 3t60.5 11.5t77 28.5t65.5 48l540 607l-203 492q-24 63 -47.5 97t-61.5 61q-15 11 -37.5 19.5t-42 12.5t-32.5 4q-11 0 -1 37q6 23 15 29q35 -1 85 -4.5t90 -5t87 -1.5q57 0 273 11q2 -7 0 -22.5t-6 -29.5t-10 -14q-14 0 -33.5 -3 t-43.5 -10.5t-42 -23t-22 -36.5q-2 -7 -2 -14q0 -22 13 -54l169 -408q9 9 26 29q325 366 366 427q16 24 19 36q0 5 -2.5 11t-12 14t-24 14.5t-41 11t-60.5 4.5q-6 3 -2 28t12 38q140 -11 225 -11q104 0 235 11q2 -4 2 -11q0 -8 -4 -22q-6 -24 -16 -33q-10 0 -29 -3 t-50 -11.5t-65.5 -28.5t-60.5 -48l-486 -527l280 -673q19 -45 74 -68t116 -23q4 -7 -2 -32.5t-10 -33.5q-29 2 -69.5 5t-73 5t-71.5 2q-53 0 -101 -2t-110 -5t-101 -5q-7 9 -2 37.5t13 28.5q29 0 80 18t57 46q2 7 -5 27l-219 534q-106 -119 -251 -291t-202 -243 q-17 -24 -19 -36q0 -3 2 -7.5t7 -9.5t12.5 -10.5t20 -10t27.5 -8.5t36.5 -6.5t45.5 -2.5q3 -8 1.5 -21.5t-5 -27t-5.5 -17.5q-194 12 -237 12q-50 0 -91 -2t-96 -5.5t-76 -4.5q-1 3 -1 6z" />
<glyph unicode="Y" horiz-adv-x="1267" d="M129 1453q0 9 5 27q6 23 14 29q36 -1 85.5 -4.5t90 -5t86.5 -1.5q57 0 274 11q1 -5 0 -16t-3 -22t-5.5 -19.5t-7.5 -8.5q-14 0 -33.5 -3t-43.5 -10.5t-42 -23t-22 -36.5q-1 -4 -1 -10q0 -19 12 -58l185 -547q69 97 156.5 225t155.5 231.5t87 138.5q10 16 13 34 q1 5 -2 11.5t-13 14.5t-25.5 15t-42.5 11.5t-60 4.5q-5 6 -1 32.5t10 33.5q24 -1 67.5 -4.5t76.5 -5t68 -1.5q49 0 85.5 1.5t79 5t70.5 4.5q0 -8 -7 -37t-11 -29q-9 0 -17 -0.5t-28 -2.5t-39 -8.5t-40.5 -15.5t-42.5 -26t-36 -38l-468 -664q-8 -11 -12 -22t-7 -29.5 t-4 -18.5l-70 -352q-1 -4 -3 -13q-21 -104 -21 -144q0 -6 1 -11q1 -12 31.5 -21t61 -12.5t46.5 -3.5q6 -8 2 -33t-13 -33q-23 1 -78 4.5t-93.5 5.5t-75.5 2t-76 -2t-96.5 -5.5t-80.5 -4.5q-6 9 -0.5 33t14.5 33q17 0 48.5 3.5t65.5 12.5t39 21q3 6 6.5 15t6 16.5t5.5 20 t5 20t5.5 23.5t4.5 23t5 26t5 24l66 345q3 16 3 30q0 19 -5 34l-189 576q-20 62 -44.5 95.5t-65.5 62.5q-15 11 -37 19.5t-41.5 12.5t-32.5 4q-6 0 -6 10z" />
<glyph unicode="Z" horiz-adv-x="1372" d="M-22 32l1181 1404l-522 -2q-105 0 -196.5 -84t-154.5 -228q-6 -9 -25 -9q-13 0 -31 6.5t-22 11.5q74 135 146 394q116 -18 171 -18h413q38 0 70.5 0.5t66.5 2t56.5 2.5t60.5 3.5t57 4t67.5 5t70.5 5.5q8 -2 20 -20q9 -14 9 -25q0 -3 -1 -5q-4 -10 -194 -241.5 t-479 -574.5t-506 -591h556q74 0 138 34t113 87q21 22 42 52t31 47t31 55.5t24 43.5q3 7 29 7q15 0 29 -6.5t19 -14.5q-108 -223 -166 -378h-1072q-17 0 -29 11q-6 5 -6 11t3 10z" />
<glyph unicode="[" horiz-adv-x="592" d="M18 -207q55 281 142.5 741.5t148.5 780.5l60 320l1 3t3 8t4.5 10.5t7 11t9.5 10t12.5 7t15.5 2.5q75 0 152 5t128 10.5t62 5.5q3 0 5 -0.5t4 -4t2 -9.5q0 -12 -4 -23.5t-9.5 -20t-13 -16.5t-13 -12.5t-10.5 -8l-5 -3.5q-105 -25 -219 -25q-6 0 -10.5 -5t-5.5 -9l-2 -5 l-328 -1678q-2 -16 11 -18q57 -6 123 -25t89 -32q6 -3 18 -19t12 -29q0 -11 -4 -19.5t-8 -11.5l-4 -3q-21 4 -56.5 10t-130 16t-171.5 10q-8 0 -13 7t-3 19z" />
<glyph unicode="\" horiz-adv-x="839" d="M262 1721q4 6 13.5 11t18.5 5q32 0 56 -30t28 -54l283 -1662q3 -17 -7 -37t-26 -32.5t-28 -12.5q-19 0 -28 7z" />
<glyph unicode="]" horiz-adv-x="588" d="M-132 -239q0 9 3 18.5t9.5 18t11.5 13.5t12.5 12t8.5 8q112 39 219 39q6 0 11.5 4.5t7.5 9.5l2 4l326 1678q2 19 -12 19q-23 0 -47 1t-44 3.5t-39 5t-33 5t-24.5 5t-16.5 3.5l-5 2q-1 0 -5 3t-7 6.5t-7 9t-6.5 13.5t-2.5 18q0 17 5.5 32.5t13.5 15.5l19 -2.5t51.5 -5.5 t72.5 -6t92.5 -5t101.5 -2q30 0 30 -34q0 -11 -3 -18l-351 -1815q0 -4 -4 -15t-16.5 -24.5t-29.5 -13.5q-77 0 -161 -6.5t-129 -13.5l-45 -7q-9 7 -9 21z" />
<glyph unicode="^" horiz-adv-x="690" d="M30 1138q5 9 43.5 42.5t87 76.5t115 121t121.5 166q3 6 7 13.5t5.5 10t5 4t9.5 1.5q15 0 22 -5.5t14 -23t13.5 -40.5t24 -68t42.5 -95q15 -30 48.5 -78t59.5 -83.5t27 -39.5q-4 -17 -16 -37t-23 -20q-21 0 -73 54.5t-100.5 119.5t-70.5 104q-76 -88 -198.5 -183 t-145.5 -95q-18 0 -18 55z" />
<glyph unicode="_" horiz-adv-x="1083" d="M-89 -84q0 12 21.5 63t33.5 51h944q13 0 13 -9q0 -15 -41 -105q-2 -4 -4 -7t-3.5 -4l-3 -2t-2.5 -1h-947q-1 0 -3 0.5t-5 4t-3 9.5z" />
<glyph unicode="`" horiz-adv-x="458" d="M46 1347q0 25 16.5 41.5t35.5 22t37 5.5q51 0 84 -23q14 -10 67.5 -68.5t101 -117t47.5 -67.5q0 -5 -6.5 -14t-11.5 -9q-17 0 -108.5 48t-177 105.5t-85.5 76.5z" />
<glyph unicode="a" horiz-adv-x="1023" d="M43 258q0 96 29 191.5t78.5 175t115 148.5t137.5 117t148 75t144 27q98 0 178 -30l-139 -720q-2 -7 -3.5 -16t-3.5 -22t-3 -25t0 -24.5t3 -22t7.5 -15t13.5 -5.5q11 0 28 9.5t33 23t34 31t30.5 31t22.5 25.5l11 12q6 0 14.5 -16.5t8.5 -26.5q-10 -18 -42.5 -52t-75 -71 t-93 -64.5t-87.5 -27.5q-36 0 -57 33.5t-21 85.5q0 37 16 121q9 54 11 70q-15 -28 -39 -63.5t-60 -79.5t-73.5 -80t-81 -60t-81.5 -24q-92 0 -147.5 74t-55.5 195zM212 344q0 -223 116 -223q55 0 123 80t121.5 197.5t75.5 226.5l47 241q-14 16 -46.5 25.5t-57.5 9.5 q-65 0 -133.5 -50.5t-122 -129t-88.5 -180t-35 -197.5z" />
<glyph unicode="b" horiz-adv-x="978" d="M98 253q0 25 14 107l180 915q20 92 20 120q0 44 -139 44q-5 7 -1.5 23.5t10.5 24.5q126 11 301 75q14 -8 14 -44q0 -22 -30 -171l-141 -697q57 94 118.5 164.5t114.5 107t94.5 53.5t71.5 17q77 0 118.5 -69t41.5 -189q0 -99 -26 -197.5t-69 -179t-101 -150.5t-121.5 -118 t-130 -75.5t-127.5 -27.5q-97 0 -154.5 71t-57.5 196zM255 229q0 -51 13 -89q26 -78 106 -78q55 0 109 47t94.5 120.5t72.5 158.5t49 164.5t17 136.5q0 29 -1.5 51t-7 47t-14.5 41.5t-26 27t-40 10.5q-36 0 -90.5 -45t-107.5 -115t-98 -165t-62 -185q-14 -71 -14 -127z" />
<glyph unicode="c" horiz-adv-x="818" d="M55 319q0 76 19 152t53 141.5t79 124.5t97.5 105t107.5 80t110.5 52t105.5 18q34 0 63.5 -10.5t43.5 -20t34 -26.5q4 -5 8.5 -14t8.5 -22.5t4 -25.5q0 -42 -20 -72t-58 -30q-24 0 -47 12.5t-35 32.5q-9 15 -15 23.5t-17.5 21t-22.5 19.5t-27.5 12.5t-35.5 5.5 q-47 0 -96.5 -40.5t-90 -108.5t-66 -168.5t-25.5 -211.5q0 -24 1.5 -46.5t6.5 -53t16.5 -55t28 -46.5t43 -34.5t61.5 -12.5q16 0 34.5 5t35.5 14t34.5 20t33.5 24t30 25.5t26 25t20 21t14 15.5t7 7q5 0 16 -18t11 -27q-9 -15 -31.5 -42.5t-59.5 -63t-77 -67t-88 -53 t-88 -21.5q-121 0 -187 87t-66 246z" />
<glyph unicode="d" horiz-adv-x="1023" d="M43 264q0 88 27.5 178.5t74.5 170t111 150t135 120.5t149 79.5t151 29.5h5h6h6h6h6l53 283q2 14 8 41.5t9 47.5t3 31q0 44 -139 44q-5 7 -1.5 23.5t10.5 24.5q126 11 301 75q14 -8 14 -44q0 -22 -30 -171l-214 -1105q-2 -7 -5.5 -37t-3.5 -39q0 -54 23 -54q11 0 28 9.5 t33 23t34 31t30.5 31t22.5 25.5l11 12q6 0 14.5 -16.5t8.5 -26.5q-10 -18 -42.5 -52t-75 -71t-93 -64.5t-87.5 -27.5q-36 0 -57 33.5t-21 85.5q0 37 16 121q4 19 11 70q-11 -23 -34.5 -58t-59.5 -79.5t-75 -81.5t-84 -62.5t-84 -25.5q-51 0 -90.5 24t-63 64.5t-35.5 88 t-12 98.5zM212 342q0 -101 28 -161t88 -60q56 0 124 81t121 199t75 228l27 148q2 11 2 21q0 33 -17 63q-22 40 -65 40q-67 0 -137 -51t-124 -130t-88 -180.5t-34 -197.5z" />
<glyph unicode="e" horiz-adv-x="827" d="M52 317q0 82 24.5 167t66 158.5t98 138.5t119 111t131.5 73t134 27q41 0 71.5 -12.5t47 -33.5t24 -44.5t7.5 -51.5q0 -52 -30 -106t-78.5 -97.5t-108.5 -83t-120 -66t-114 -42t-89 -15.5q-5 -14 -5 -73q0 -112 38 -179t120 -67q18 0 39 6.5t39.5 17t38.5 24.5t36 28 t31.5 28.5t25 25t16.5 19.5l8 8q6 0 17 -18t11 -27q-13 -23 -47.5 -61t-82.5 -81t-107.5 -74t-109.5 -31q-121 0 -186 86t-65 245zM239 497q28 0 72.5 15.5t95.5 45.5t96 67t74 85.5t29 96.5q0 43 -29.5 67t-65.5 24q-45 0 -87.5 -30.5t-73.5 -77t-55.5 -102t-38 -105 t-17.5 -86.5z" />
<glyph unicode="f" horiz-adv-x="674" d="M-283 -474q0 25 3 36q5 40 21.5 65.5t44.5 25.5q18 0 34.5 -8.5t26 -17t25.5 -26.5q11 -11 18 -16.5t20.5 -11.5t27.5 -6q64 0 106.5 115.5t99.5 406.5l136 768h-193q-5 0 -5 7q0 20 34.5 49t70.5 29h107q21 109 59.5 207.5t86 172.5t102.5 128.5t112.5 83t111.5 28.5 q47 0 78.5 -16.5t44.5 -40.5v-21q-4 -44 -21 -75.5t-47 -31.5q-18 0 -35 8.5t-26 17t-26 27.5q-11 10 -17.5 16t-20 12t-28.5 6q-63 0 -105.5 -116t-99.5 -406h228q11 0 11 -28q0 -24 -20 -57h-235q-80 -472 -135 -759q-26 -136 -78.5 -255t-116.5 -200t-136.5 -127.5 t-140.5 -46.5q-46 0 -78 16t-45 41z" />
<glyph unicode="g" horiz-adv-x="939" d="M-109 -308q0 45 22 88t53.5 75t79.5 64.5t86 52t87 42.5l-41 27q-17 11 -27.5 20.5t-20 26t-9.5 35.5q0 20 25 45.5t61 47t74.5 38.5t67.5 24q-23 0 -55 10t-67.5 32.5t-65.5 52.5t-50 75.5t-20 96.5q0 94 37.5 178.5t98.5 143t138.5 93t156.5 34.5q41 0 77.5 -7.5 t58.5 -16.5t58 -26q14 -7 42.5 0.5t60 20t41.5 13.5q11 -3 26.5 -12t30.5 -20t25.5 -24t10.5 -24q0 -13 -7 -22.5t-20 -9.5q-5 0 -77 2q-48 1 -72 1h-18q1 -4 6 -22t11 -39t10.5 -48t4.5 -49q0 -68 -17.5 -129.5t-41.5 -101t-56.5 -73.5t-52.5 -49.5t-39 -26.5 q-29 -17 -99.5 -44.5t-117 -52t-46.5 -47.5q0 -13 20 -26.5t52 -25t73.5 -27t84.5 -32t84 -41.5t73 -54t52 -70t20 -89q0 -162 -144.5 -257.5t-389.5 -95.5q-157 0 -256 59.5t-99 163.5zM59 -251q0 -44 17 -79t46.5 -57.5t71.5 -37t89 -20.5t102.5 -6t103 15t79 40t49 58 t17.5 69q0 30 -13 57.5t-32 48.5t-49.5 42t-58 35t-66.5 29t-64.5 23.5t-60.5 19.5q-33 -14 -60 -27t-60.5 -36t-56 -46.5t-38.5 -57t-16 -70.5zM260 563q0 -58 15 -106.5t47.5 -80.5t78.5 -32q53 0 97 31t70 79.5t40 104.5t14 111q0 59 -15.5 116.5t-48.5 99.5t-75 42 q-52 0 -96 -34.5t-70.5 -89t-41.5 -117.5t-15 -124z" />
<glyph unicode="h" horiz-adv-x="1071" d="M50 0l246 1275q3 14 8.5 41.5t9 47.5t3.5 31q0 44 -139 44q-5 7 -1.5 23.5t10.5 24.5q125 11 301 75q14 -8 14 -44q0 -22 -30 -171l-116 -595l-41 -209q10 20 43.5 68.5t86 114t107.5 124.5t114.5 100.5t101.5 41.5q43 0 72 -20t41.5 -53t12.5 -78q0 -97 -32 -248 l-75 -351q-2 -7 -6 -36t-4 -37q0 -57 23 -57q12 0 28.5 9.5t33 23t34 31t30.5 31t23 25.5t11 12q5 0 14 -16.5t9 -26.5q-11 -18 -43.5 -52t-75 -71t-93 -64.5t-87.5 -27.5t-57.5 33t-20.5 86q0 54 16 121l80 376q4 18 10 62t6 61q0 23 -1.5 38t-5.5 30t-13 22.5t-23 7.5 q-25 0 -69 -31t-95.5 -87t-100.5 -123.5t-88.5 -151t-54.5 -159.5q-16 -83 -57 -271q-31 -9 -82 -9q-41 0 -78 9z" />
<glyph unicode="i" horiz-adv-x="597" d="M57 777q11 19 41 52.5t71 71t89.5 64.5t85.5 27q18 0 34.5 -9t28.5 -24.5t19 -38t7 -47.5q0 -37 -16 -121l-116 -510q-9 -46 -9 -73q0 -57 23 -57q9 0 23 6.5t28.5 18t29 25t28.5 27.5t24 25.5t18 20t8 9.5q5 0 14 -16.5t9 -26.5q-10 -18 -42.5 -52t-75.5 -71t-93 -64.5 t-88 -27.5q-35 0 -56 33.5t-21 85.5q0 37 16 121l116 510q9 55 9 73q0 57 -23 57q-11 0 -27.5 -9.5t-33 -23t-34.5 -31t-30.5 -31t-23 -25t-10.5 -12.5q-5 0 -14 16.5t-9 26.5zM264 1343q0 52 34.5 91t84.5 39q35 0 58.5 -27t23.5 -64q0 -55 -35.5 -96t-87.5 -41 q-24 0 -42 14t-27 36t-9 48z" />
<glyph unicode="j" horiz-adv-x="567" d="M-194 -490q115 65 200.5 208t123.5 332l137 686q9 55 9 73q0 57 -23 57q-11 0 -28 -9.5t-33 -23t-34 -31t-30.5 -31t-23 -25t-11.5 -12.5q-5 0 -13.5 16.5t-8.5 26.5q10 19 40.5 52.5t71.5 71t89.5 64.5t85.5 27q18 0 34 -9t28 -24.5t19.5 -38t7.5 -47.5q0 -37 -16 -121 l-125 -649q-17 -86 -57 -193t-105 -193q-67 -87 -158 -156.5t-159 -96.5q-7 6 -14 20t-7 26zM303 1343q0 52 34.5 91t84.5 39q35 0 58.5 -27t23.5 -64q0 -55 -35.5 -96t-87.5 -41q-24 0 -42 14t-27 36t-9 48z" />
<glyph unicode="k" horiz-adv-x="1048" d="M50 0l249 1275q20 92 20 120q0 44 -139 44q-5 7 -1.5 23.5t10.5 24.5q126 11 301 75q14 -8 14 -44q0 -22 -30 -171l-118 -613l24 30q25 29 61 65t82 74t104.5 63.5t113.5 25.5q68 0 119.5 -45t51.5 -110q0 -61 -26 -113t-70 -90t-106.5 -68.5t-131 -50.5t-147.5 -34 q103 -155 163 -230t103 -105t92 -30q25 0 76 46.5t79 81.5q5 0 14 -17.5t9 -25.5q-8 -14 -38 -46.5t-70 -70t-88 -65.5t-82 -28q-33 0 -65 12.5t-58.5 33t-54.5 52t-49.5 62.5t-45.5 72t-42 73.5t-40.5 73t-37.5 65.5l-84 -435q-42 -11 -80 -11q-36 0 -82 11zM315 524 q47 0 102 11t111.5 34.5t102 56t74.5 80t29 101.5q0 17 -3 29.5t-10.5 24.5t-23 18t-38.5 6q-63 0 -140.5 -61t-134 -145.5t-69.5 -154.5z" />
<glyph unicode="l" horiz-adv-x="554" d="M84 105q0 37 16 121l206 1049q20 92 20 120q0 44 -139 44q-5 7 -1.5 23.5t10.5 24.5q125 11 301 75q14 -8 14 -44q0 -22 -30 -171l-217 -1105q-1 -7 -5 -36t-4 -37q0 -57 23 -57q11 0 28 9.5t33.5 23t34 31t30.5 31t23 25.5t11 12q5 0 14 -16.5t9 -26.5 q-11 -18 -43.5 -52t-75 -71t-93 -64.5t-87.5 -27.5t-57.5 33t-20.5 86z" />
<glyph unicode="m" horiz-adv-x="1627" d="M50 777q11 19 41.5 52.5t71 71t89 64.5t85.5 27q18 0 34.5 -9t28.5 -24.5t19 -38t7 -47.5t-18 -121q-11 -54 -45 -212q27 49 62 103t82 118t91 114t90.5 83.5t79.5 33.5q38 0 66.5 -13.5t45 -34t26 -50.5t12.5 -57.5t3 -61.5q0 -40 -10.5 -106.5t-21.5 -96.5q26 45 64 99 t85.5 111t95 103.5t94.5 76.5t81 30q51 0 83 -18.5t45 -51t13 -81.5q0 -102 -32 -248l-75 -351q-9 -46 -9 -73q0 -57 23 -57q11 0 27.5 9.5t33 23t34.5 31t30.5 31t23.5 25.5l10 12q5 0 14 -16.5t9 -26.5q-10 -18 -42.5 -52t-75.5 -71t-93 -64.5t-88 -27.5q-35 0 -56 33.5 t-21 85.5q0 37 16 121l80 376q4 18 10 62t6 61q0 26 -1.5 41t-5.5 29.5t-13 21t-24 6.5q-34 0 -94.5 -50t-121.5 -124t-113 -170t-68 -178l-57 -301q-47 -7 -84 -7q-35 0 -80 7l128 648q9 48 9 86q0 89 -45 89q-50 0 -134.5 -89.5t-159 -220t-96.5 -235.5l-57 -278 q-34 -9 -82 -9q-26 0 -80 9l150 736q9 55 9 73q0 57 -22 57q-12 0 -28.5 -9.5t-33 -23t-34.5 -31t-30.5 -31t-23 -25t-10.5 -12.5q-5 0 -14 16.5t-9 26.5z" />
<glyph unicode="n" horiz-adv-x="1133" d="M50 777q11 19 41.5 52.5t71 71t89 64.5t85.5 27q18 0 34.5 -9t28.5 -24.5t19 -38t7 -47.5q0 -44 -18 -121l-41 -191q7 13 26 41.5t49 68.5t65 83.5t76 86t80.5 76t79.5 54.5t71 21q51 0 83 -18.5t45 -51t13 -81.5q0 -93 -32 -248l-75 -351q-9 -46 -9 -73q0 -57 23 -57 q11 0 28 9.5t33 23t34 31t30.5 31t22.5 25.5l11 12q6 0 14.5 -16.5t8.5 -26.5q-10 -18 -42.5 -52t-75 -71t-93 -64.5t-87.5 -27.5q-36 0 -57 33.5t-21 85.5q0 37 16 121l80 376q4 18 10 62t6 61q0 26 -1 41t-5 29.5t-13.5 21t-24.5 6.5q-25 0 -70 -28.5t-99 -81.5 t-104.5 -119t-91.5 -150.5t-56 -165.5q-9 -46 -57 -278q-37 -9 -82 -9q-44 0 -80 9l150 736q9 55 9 73q0 57 -22 57q-12 0 -28.5 -9.5t-33 -23t-34.5 -31t-30.5 -31t-23 -25t-10.5 -12.5q-5 0 -14 16.5t-9 26.5z" />
<glyph unicode="o" horiz-adv-x="943" d="M55 315q0 94 28 192.5t78.5 184t115 153.5t142 107.5t153.5 39.5q132 0 199.5 -91t67.5 -244q0 -94 -28.5 -192t-79.5 -182t-115.5 -151t-142 -105t-154.5 -38q-132 0 -198 86.5t-66 239.5zM233 360q0 -138 34 -218t96 -80q54 0 103 36t84 95.5t60.5 133t38 150 t12.5 145.5q0 141 -30 219t-91 78q-55 0 -105 -36t-86 -95t-63 -132.5t-40 -150t-13 -145.5z" />
<glyph unicode="p" horiz-adv-x="1021" d="M-126 -504q1 29 10 34q61 0 91 37q21 27 36 98l181 905l-110 -109q-14 17 -14 45q0 9 7 16l135 144l59 321q33 9 87 9q41 0 73 -16q-29 -134 -37 -191q219 203 338 203q53 0 92 -20.5t62 -58t33.5 -86.5t10.5 -111q0 -104 -32.5 -211t-90 -198t-129.5 -163.5 t-156.5 -113.5t-166.5 -41q-87 0 -104 29l-76 -349q-7 -30 -7 -63q0 -7 3 -17.5t11 -21.5t18 -14q29 -7 108 -7q7 -1 4 -30.5t-11 -33.5q-16 0 -42 1.5t-38 1.5q-168 0 -338 -21q-7 2 -7 25v7zM288 238q0 -58 24 -102q35 -68 89 -68q70 0 137.5 59.5t115 150.5t76.5 201.5 t29 211.5q0 175 -121 175q-55 0 -138 -57.5t-131 -124.5l-75 -385q-6 -32 -6 -61z" />
<glyph unicode="q" horiz-adv-x="971" d="M43 264q0 88 27.5 178.5t74.5 170t111 150t135 120.5t149 79.5t151 29.5q100 0 180 -30l-139 -720l-105 -584q-5 -36 -5 -48q0 -15 3 -24.5t12 -21t32 -17t58 -5.5q5 0 6 -14t-2 -29.5t-8 -18.5q-16 0 -46.5 1t-44.5 1q-174 0 -342 -18q-5 4 -4 33t10 29q142 14 155 84 l128 686q-16 -28 -39.5 -63.5t-60 -79.5t-73.5 -80t-80.5 -60t-81.5 -24q-51 0 -90.5 24t-63 64.5t-35.5 88t-12 98.5zM212 342q0 -101 28 -161t88 -60q56 0 124 81t121 199t75 228l27 148q2 11 2 21q0 33 -17 63q-22 40 -65 40q-67 0 -137 -51t-124 -130t-88 -180.5 t-34 -197.5z" />
<glyph unicode="r" horiz-adv-x="811" d="M48 777q11 19 41 52.5t71 71t89.5 64.5t85.5 27q18 0 34.5 -9t28.5 -24.5t19 -38t7 -47.5t-18 -121q-11 -61 -39 -191q26 61 64.5 132t85 139.5t96 114t87.5 45.5q35 0 64.5 -14.5t47.5 -33.5q4 -6 9 -16.5t8 -23.5t3 -24q0 -45 -21.5 -72.5t-60.5 -27.5q-16 0 -35.5 9.5 t-32.5 24.5q-15 18 -46 18q-20 0 -49 -24.5t-60 -66t-64 -97.5t-61 -116.5t-50 -126t-33 -123.5l-50 -278q-38 -7 -77 -7q-44 0 -85 7l137 736q9 55 9 73q0 57 -23 57q-10 0 -23.5 -6.5t-28 -18t-29 -25t-28.5 -27.5t-24 -25.5t-18 -20t-8 -9.5q-6 0 -14.5 16.5t-8.5 26.5z " />
<glyph unicode="s" horiz-adv-x="734" d="M5 123q0 48 24 76.5t60 28.5q16 0 30 -10.5t22.5 -22t22.5 -35t23 -35.5q48 -66 121 -66q32 0 55.5 13.5t35 35.5t16.5 42.5t5 41.5q0 11 -2.5 23t-4.5 22t-8.5 22.5t-9.5 20t-13 21.5t-13.5 19.5t-16 21t-16 19t-18 20.5t-17.5 20q-29 32 -41 46t-36.5 44.5t-35.5 51 t-25.5 49.5t-20 58.5t-5.5 60.5q0 49 23 99.5t63 92.5t101 69t130 27q45 0 80.5 -7t63 -20.5t52.5 -34.5q8 -11 15.5 -35.5t7.5 -37.5q0 -40 -22 -66.5t-56 -26.5q-49 0 -107 79l-9 13.5l-9 13.5t-9 11.5t-11.5 11t-12.5 8.5t-15.5 7.5t-18 3.5t-22.5 2q-37 0 -64 -22.5 t-37.5 -50.5t-10.5 -55q0 -22 7 -44.5t15.5 -39.5t27 -41t30 -37.5t36 -40.5t35.5 -38q24 -29 41.5 -51t37 -52t31.5 -56.5t20.5 -59.5t8.5 -66q0 -126 -93 -203.5t-238 -77.5q-120 0 -201 69q-22 38 -22 68z" />
<glyph unicode="t" horiz-adv-x="633" d="M93 864q0 20 34.5 49t70.5 29h69l25 134q27 35 81.5 93t66.5 58q21 0 39 -14l-50 -271h171q11 0 11 -28q0 -24 -20 -57h-178l-121 -615q-9 -46 -9 -73q0 -57 23 -57q11 0 27.5 9.5t33 23t34.5 31t30.5 31t22.5 25.5l11 12q3 0 8.5 -8t10 -18.5t4.5 -16.5 q-10 -18 -42.5 -52t-75.5 -71t-93 -64.5t-88 -27.5q-35 0 -56 33.5t-21 85.5q0 37 16 121l123 631h-153q-5 0 -5 7z" />
<glyph unicode="u" horiz-adv-x="1119" d="M46 777q10 19 40.5 52.5t71 71t89 64.5t86.5 27q18 0 34 -9t28 -24.5t19.5 -38t7.5 -47.5q0 -37 -16 -121l-80 -376q-4 -18 -10 -62t-6 -61q0 -22 1.5 -37.5t5.5 -30.5t13 -22.5t23 -7.5q25 0 69 31.5t95.5 88.5t100.5 127t88.5 157t55.5 168q7 41 23.5 120t26.5 131 q30 9 70 9q53 0 89 -9l-141 -736q-9 -46 -9 -73q0 -57 23 -57q11 0 27.5 9.5t33 23t34.5 31t30.5 31t22.5 25.5l11 12q5 0 14 -16.5t9 -26.5q-10 -18 -42.5 -52t-75.5 -71t-93 -64.5t-88 -27.5q-35 0 -56 33.5t-21 85.5q0 37 16 121q6 34 12.5 65t14.5 68t14 65 q-23 -50 -76 -122.5t-118 -143.5t-138 -121.5t-126 -50.5q-114 0 -114 164q0 81 31 235l76 351q9 55 9 73q0 57 -23 57q-11 0 -28 -9.5t-33 -23t-34 -31t-30.5 -31t-23 -25t-11.5 -12.5q-5 0 -13.5 16.5t-8.5 26.5z" />
<glyph unicode="v" horiz-adv-x="1000" d="M39 777q10 19 40.5 52.5t71.5 71t89.5 64.5t85.5 27q24 0 44.5 -16.5t32.5 -45t12 -61.5v-121v-347q0 -189 9 -253q116 100 175.5 177t116.5 190q28 56 42.5 126.5t14.5 117.5q0 38 -15.5 77t-43.5 67q12 34 40.5 61.5t66.5 27.5q62 0 93.5 -50t31.5 -133 q0 -68 -39.5 -160t-102.5 -181t-141 -177.5t-153.5 -155t-142 -108t-105.5 -41.5q-10 12 -14 131.5t-4 219.5v472q0 57 -23 57q-11 0 -28 -9.5t-33 -23t-34 -31t-30.5 -31t-23 -25t-10.5 -12.5q-6 0 -14.5 16.5t-8.5 26.5z" />
<glyph unicode="w" horiz-adv-x="1434" d="M39 777q10 19 40.5 52.5t71.5 71t89.5 64.5t85.5 27q24 0 44.5 -16.5t32.5 -45t12 -61.5v-121v-347q0 -132 9 -196q115 123 258 376q19 35 36 70.5t24.5 52.5t21.5 50t16 37q14 18 45 38.5t53 25.5q7 -309 13 -438q10 -204 35 -244q91 80 148 160.5t96 188.5 q32 87 32 237q0 25 -7 50t-20.5 50t-32.5 44q6 15 15.5 30t23 28.5t31.5 22t37 8.5q42 0 71 -24t42 -64.5t13 -94.5q0 -69 -34 -160t-87.5 -180.5t-121 -178t-133.5 -155t-127 -108t-99 -41.5q-11 13 -27.5 153t-18.5 203l-4 146q-350 -502 -461 -502q-10 12 -14 131.5 t-4 219.5v472q0 57 -23 57q-11 0 -28 -9.5t-33 -23t-34 -31t-30.5 -31t-23 -25t-10.5 -12.5q-6 0 -14.5 16.5t-8.5 26.5z" />
<glyph unicode="x" horiz-adv-x="1098" d="M34 93q0 43 23 72t62 29q15 0 28.5 -10t22.5 -21.5t23.5 -22.5t29.5 -12q16 -1 30 7t21.5 18t17.5 27q79 134 157 285l-64 315q-7 39 -25.5 62.5t-47.5 23.5q-30 0 -88.5 -47.5t-84.5 -79.5q-3 0 -8.5 8.5t-10 19t-4.5 15.5q8 14 38 46.5t70 70t88 65.5t82 28 q54 0 96.5 -52.5t61.5 -143.5l32 -155q10 19 28 57q21 42 31.5 62.5t28.5 55t29 51.5t28 41.5t30.5 36.5t30.5 24.5t34.5 17.5t37.5 5q63 0 107 -28q25 -33 25 -77q0 -43 -23 -71.5t-61 -28.5q-16 0 -29.5 9.5t-22.5 21.5t-23 22.5t-30 12.5q-16 1 -29.5 -7.5t-21.5 -18.5 t-18 -27q-108 -188 -136 -244l73 -353q16 -84 79 -84q26 0 84.5 47t82.5 78q5 0 14 -17.5t9 -25.5q-8 -14 -38 -46.5t-70 -70t-88 -65.5t-83 -28q-53 0 -95.5 53t-61.5 143l-39 196q-15 -31 -39 -80t-37.5 -76t-34 -65.5t-34.5 -59.5t-34 -46t-37.5 -37.5t-39 -21 t-45.5 -8.5q-63 0 -107 27q-25 33 -25 77z" />
<glyph unicode="y" horiz-adv-x="1019" d="M-253 -438q0 31 14 59t38 42q26 -16 85.5 -30t97.5 -14q99 0 173.5 49.5t136.5 139.5q15 23 24.5 52.5t12.5 73t5 67.5v40v39q-1 54 -1 61q0 112 -6 225.5t-20 232.5t-42.5 193t-68.5 74q-11 0 -28 -9.5t-33 -23t-34 -31t-30.5 -31t-23 -25t-11.5 -12.5q-5 0 -13.5 16.5 t-8.5 26.5q10 19 40.5 52.5t71.5 71t89.5 64.5t85.5 27q35 0 64.5 -34.5t50 -96.5t36 -134.5t24.5 -162t15 -165t8.5 -158t3.5 -125.5t1 -82q28 35 59 79t68.5 109.5t66.5 132t48.5 145.5t19.5 150q0 64 -10.5 116t-19.5 72.5t-27 55.5q14 45 44 71.5t70 26.5 q100 0 100 -180q0 -129 -55.5 -284.5t-145 -301.5t-203.5 -285.5t-228.5 -242.5t-223 -166t-183.5 -63q-60 0 -98.5 27.5t-38.5 65.5z" />
<glyph unicode="z" horiz-adv-x="882" d="M-23 43q0 12 107 132.5t235.5 258t237 253t109.5 118.5q-72 -48 -144 -48q-14 0 -30.5 3t-26.5 5t-30 9.5t-24.5 9.5t-27.5 12q-82 38 -123 38q-22 0 -46.5 -22t-39.5 -46.5t-31 -54t-18 -32.5q-23 0 -27 37q6 21 28 63t53.5 91.5t73 85.5t78.5 36q23 0 50 -5.5t38 -8.5 t48 -17t39 -15q71 -25 128 -25q37 0 84 17.5t81 35.5t40 18q25 -13 25 -46q0 -11 -101.5 -127.5t-223 -249t-225 -245.5t-104.5 -114q50 25 105 25q59 0 141 -39q6 -3 21 -9t22 -9t19.5 -8t21 -7t18.5 -4t19 -2q14 0 29.5 10t28 25t25.5 34t22 35t17 31t10 18q23 0 27 -36 q-14 -33 -29 -63t-40.5 -70.5t-50.5 -69.5t-56.5 -50t-62.5 -21q-25 0 -61.5 9t-56.5 16.5t-64 24.5q-27 10 -74 16.5t-88 6.5q-30 0 -56 -12.5t-53 -33t-42 -27.5q-21 7 -25 43z" />
<glyph unicode="{" horiz-adv-x="478" d="M41 -28.5q-7 67.5 7 151.5q9 48 29.5 91t54.5 98q4 7 13 21.5t13.5 21.5t12 20.5t11.5 22t10 20.5t9.5 22t7 21.5t5.5 21.5q28 148 -123 192q-4 8 0 25q6 21 9 25q171 45 199 192q3 17 4 33.5t-1.5 37t-4.5 31t-7.5 37t-6.5 32.5q-6 26 -9.5 45t-6.5 44t-1.5 49.5 t5.5 50.5q13 63 39.5 123t59 105t70 82.5t72 61.5t65.5 36q12 0 21.5 -14t5.5 -29q-25 -12 -58 -37t-66.5 -58t-59.5 -76.5t-35 -84.5q-2 -16 -3.5 -32t-2.5 -27.5t0.5 -28t1.5 -24t3.5 -25.5t4.5 -22.5t5.5 -24.5t4.5 -23q8 -35 12 -61.5t4 -67t-9 -83.5 q-10 -53 -35.5 -101t-56.5 -80.5t-60 -54.5t-53 -31q20 -9 41 -30.5t40 -56t25 -79t-4 -101.5q-20 -101 -91 -212q-2 -4 -14 -23t-15 -24.5t-13 -22.5t-13.5 -25.5t-11 -24.5t-11 -28t-8 -27.5t-7.5 -31.5q-7 -35 -1.5 -68.5t18 -63.5t30.5 -54.5t36.5 -42t34.5 -27.5 q-3 -15 -17 -29t-26 -14q-34 15 -65 49t-56 87t-32 120.5z" />
<glyph unicode="|" horiz-adv-x="471" d="M2 -262l385 1988q37 36 101 36q13 0 24 -4.5t10 -11.5l-383 -1988q-13 -14 -43.5 -26t-61.5 -12q-12 0 -23 5t-9 13z" />
<glyph unicode="}" horiz-adv-x="483" d="M-79 -242q26 12 58.5 37t66 58t60 76.5t34.5 84.5q3 16 4.5 31.5t2 27.5t-0.5 28.5t-1.5 24t-4 25.5t-4 22.5t-5 24.5t-5.5 23q-8 34 -12 61t-3.5 67.5t8.5 83.5q11 53 36 100.5t56 80.5t60 55t53 31q-20 9 -41 30.5t-40 56t-24.5 79t3.5 101.5q20 101 91 212 q2 3 14 22.5t15 25t13 22.5t13.5 25.5t11 24.5t11.5 28t8.5 27.5t7.5 31.5q8 41 -1.5 84.5t-30 76.5t-43.5 58t-44 37q3 15 16 29t25 14q34 -15 65 -49t57 -87t33.5 -120.5t-7.5 -151.5q-6 -33 -20.5 -68.5t-28 -60t-35.5 -60.5q-4 -6 -14.5 -24t-15 -25.5t-13.5 -23 t-13.5 -25t-10.5 -23.5t-9.5 -26t-5.5 -24q-28 -148 123 -192q4 -8 0 -25q-3 -16 -9 -25q-171 -45 -199 -192q-3 -17 -3.5 -33.5t2 -37t4 -31t7 -37t6.5 -32.5q9 -36 12.5 -59.5t5.5 -62t-6 -67.5q-16 -79 -52.5 -151t-81.5 -122.5t-90 -85t-84 -49.5q-12 0 -20 14t-5 29z " />
<glyph unicode="~" horiz-adv-x="1242" d="M135 613q0 26 20 54.5t54 52.5t75 44t84.5 31.5t80.5 11.5q55 0 106 -12.5t91 -30t80.5 -35.5t91 -30.5t105.5 -12.5q37 0 74.5 14.5t60.5 30t65 47.5l12 9q1 -1 4.5 -4t5 -4.5t3 -5.5t1.5 -9q0 -26 -26 -59.5t-67 -63.5t-99 -50.5t-116 -20.5q-55 0 -106.5 12.5 t-92.5 30t-82.5 35.5t-93 30.5t-106.5 12.5q-36 0 -73.5 -14.5t-60.5 -30t-66 -47.5q-2 -1 -3 -2t-2.5 -2l-3 -2t-3.5 -2q-1 0 -3 2l-3.5 3.5t-3.5 4t-2.5 5.5t-0.5 7z" />
<glyph unicode="&#xa1;" horiz-adv-x="462" d="M-84 -508q0 26 10.5 71.5t63.5 253.5q102 394 197 767q6 22 16.5 38.5t19.5 11.5q23 -12 31 -21.5t8 -26.5q-137 -1040 -139 -1056q-11 -58 -44 -100.5t-79 -42.5q-41 0 -62.5 29.5t-21.5 75.5zM162 841q0 63 45.5 112.5t102.5 49.5q44 0 71 -31t27 -76 q0 -64 -45.5 -110.5t-102.5 -46.5q-44 0 -71 28.5t-27 73.5z" />
<glyph unicode="&#xa2;" horiz-adv-x="816" d="M41 319q0 54 9.5 107.5t27.5 102.5t42.5 96t54.5 88.5t64.5 79t71 68t75.5 55t77.5 41.5t76.5 26t73 9q34 0 63.5 -10.5t43.5 -20t35 -26.5q6 -9 13 -27t7 -35q0 -27 -8 -49.5t-26 -37.5t-43 -15t-48 12.5t-34 32.5q-9 15 -15 23.5t-17.5 21t-23 19.5t-28 12.5t-35.5 5.5 q-47 0 -96.5 -40.5t-89.5 -108.5t-66 -168.5t-26 -211.5q0 -24 2 -46.5t7 -53t16 -55t27.5 -46.5t43.5 -34.5t61 -12.5q15 0 31.5 4t32 11.5t31.5 17t30 20.5t28.5 23t25.5 23l21.5 21.5t17.5 18t12 13l5 5.5q5 0 16 -18t11 -27q-11 -20 -44.5 -57.5t-81.5 -81.5t-108 -76 t-110 -32q-121 0 -187 87t-66 246zM178 -82l401 1163q8 0 18.5 -1t23.5 -2.5t21.5 -5.5t7.5 -10l-401 -1165q-22 0 -47.5 5.5t-23.5 15.5z" />
<glyph unicode="&#xa3;" horiz-adv-x="1019" d="M-3 23q28 39 72 91t61 73q56 118 102 353q7 28 12 98h-128q-14 37 39 89h96q9 156 22 224q27 141 103 255t181 178t218 64q111 0 146 -85q0 -47 -25.5 -90.5t-63.5 -43.5q-24 0 -41 12.5t-28 30.5t-21.5 36.5t-28 31t-41.5 12.5q-41 0 -75.5 -19.5t-58 -50t-42.5 -75.5 t-30.5 -87t-21.5 -94q-5 -29 -10 -69.5t-8 -71t-7.5 -83t-6.5 -75.5h299q3 -3 0 -19.5t-14.5 -39t-24.5 -30.5h-269q-4 -51 -9 -73q-23 -116 -77 -209t-117 -155q12 4 23.5 7t29 4t29 1t41.5 -0.5t48 -0.5q49 0 111.5 -18t118.5 -36.5t90 -18.5q26 0 50.5 11.5t45 33 t34.5 39.5t32 46t25 37q4 0 9 -5t8 -14t3 -20q0 -12 -5 -21q-142 -264 -300 -264q-58 0 -133 21t-143.5 42t-111.5 21q-73 0 -176 -87q-18 0 -26 15t-6 29z" />
<glyph unicode="&#xa4;" horiz-adv-x="1149" d="M82 351l137 116q-27 65 -27 144q0 100 40.5 194t100.5 159l-84 128q0 1 -1.5 2.5t-1.5 2.5q0 17 38.5 48t75.5 41l85 -126q109 71 230 71q132 0 219 -94l150 126q3 2 9.5 2t14.5 -6t15 -16.5t13.5 -23.5t10.5 -28t6 -29l-153 -127q25 -68 25 -144q0 -69 -21.5 -138.5 t-48 -115t-58.5 -83.5l89 -133q0 -1 1 -2t1 -2q0 -11 -17.5 -29.5t-44.5 -35.5t-52 -24l-84 125q-116 -79 -242 -79q-135 0 -223 91l-135 -114q-2 -2 -9 -2q-17 0 -36.5 33t-22.5 69zM351 622q0 -120 53 -197.5t136 -77.5q57 0 110.5 38t92 98.5t62 138.5t23.5 155 q0 121 -52 200t-135 79q-75 0 -143 -64.5t-107.5 -165t-39.5 -204.5z" />
<glyph unicode="&#xa5;" horiz-adv-x="1349" d="M206 1412q6 22 14 29q34 -2 81.5 -5t86 -4.5t83.5 -1.5q57 0 262 11q2 -12 -3 -38t-13 -26q-13 0 -31.5 -3t-41.5 -9.5t-40 -21t-21 -34.5q-5 -19 11 -66l173 -523q99 139 224.5 327.5t154.5 240.5q11 17 13 32q1 5 -2 11t-12.5 14t-24 14.5t-40 11t-57.5 4.5q-5 6 -1 31 t10 33q21 -2 64.5 -5t75.5 -5t65 -2q47 0 82.5 2t76 5l67.5 5q0 -8 -7 -36t-12 -28q-14 0 -29.5 -2t-47.5 -8.5t-63 -26.5t-53 -50l-447 -634q-9 -11 -12.5 -21.5t-5.5 -25.5t-3 -19l-68 -335q-26 -124 -21 -162q2 -16 51 -25t82 -9q5 -8 1.5 -32t-13.5 -32q-22 1 -59 3.5 t-61 4t-56 3t-59 1.5q-35 0 -72 -2t-93 -5.5t-76 -4.5q-7 9 -1.5 32t14.5 32q33 0 86 9t60 25q7 12 13 32.5t9 34.5t10 49t9 46l64 328q5 37 -2 62l-183 549q-20 60 -42.5 92.5t-59.5 58.5q-21 16 -53 25t-54 9q-11 0 -3 35zM359 333q0 13 9.5 36t20.5 32h561q6 0 6 -16 q0 -12 -6.5 -34.5t-20.5 -35.5h-561q-9 0 -9 18zM393 511q0 13 9.5 36t20.5 32h561q7 0 7 -16q0 -13 -7 -35t-21 -36h-561q-9 0 -9 19z" />
<glyph unicode="&#xa6;" horiz-adv-x="481" d="M7 -262l159 827q37 37 100 37q13 0 24.5 -5t10.5 -11l-158 -828q-12 -14 -43 -26t-62 -12q-11 0 -22 5t-9 13zM230 891l160 828q36 37 100 37q13 0 24.5 -5t9.5 -11l-157 -828q-13 -15 -42.5 -27t-60.5 -12q-12 0 -24 5.5t-10 12.5z" />
<glyph unicode="&#xa7;" horiz-adv-x="900" d="M46 -100q5 25 35.5 53.5t55.5 28.5q13 0 25 -3.5t16.5 -5.5t16.5 -10t13 -9q32 -18 63 -18q37 0 77 12t76 41.5t44 69.5q7 37 -8.5 88t-47.5 105.5t-63 98t-66 87.5q-21 26 -39 50t-37.5 55.5t-34.5 61.5t-27.5 66.5t-18.5 72.5t-6 77t8 82q14 75 63.5 158t122.5 161 t163 146q158 121 328 121q48 0 84 -18q7 -22 0 -60q-5 -25 -35.5 -53.5t-55.5 -28.5q-10 0 -19 1.5t-16.5 5t-12 6t-12.5 8t-11 7.5q-31 18 -66 18q-26 0 -56 -7.5t-59 -21.5t-51 -39t-27 -55q-8 -37 7.5 -88t47.5 -105.5t63 -98t66 -87.5q21 -26 39 -50t37.5 -55.5 t34.5 -61.5t27.5 -66.5t18.5 -72.5t6 -77t-8 -82q-14 -73 -68 -161t-127 -165.5t-154 -138.5q-64 -51 -150 -86t-178 -35q-48 0 -84 18q-7 22 0 60zM254.5 924.5q-0.5 -39.5 5 -74.5t16.5 -70t25 -65t33 -60.5t37 -56t40 -51.5q7 -8 25 -30t27.5 -33.5t26.5 -34t26.5 -37 t23 -37.5t21 -40.5t15.5 -41t10.5 -44.5t2.5 -45.5t-5 -48.5q-1 -6 -3 -12.5t-3.5 -13.5t-2.5 -13q23 31 34 47t26 41t23.5 49.5t14.5 54.5q7 39 7.5 78.5t-5 74.5t-16.5 70t-25 65t-33 60.5t-37 56t-39 51.5q-8 8 -26 30t-27.5 33.5t-26.5 34t-26.5 37t-23 37.5t-21 40.5 t-15.5 41t-10.5 44.5t-2 45.5t4.5 48.5q1 7 4.5 19.5t4.5 19.5q-30 -41 -44 -62t-30 -56t-24 -74q-7 -39 -7.5 -78.5z" />
<glyph unicode="&#xa8;" horiz-adv-x="649" d="M46.5 1245q8.5 42 45 73.5t76.5 31.5q39 0 62.5 -32.5t14.5 -74.5q-5 -28 -23.5 -52t-44 -37.5t-50.5 -13.5q-40 0 -64.5 31.5t-16 73.5zM434.5 1245q8.5 42 46 73.5t76.5 31.5q40 0 62 -32t14 -75q-9 -43 -44 -73t-75 -30t-64 31.5t-15.5 73.5z" />
<glyph unicode="&#xa9;" horiz-adv-x="1374" d="M130 652q0 97 27.5 192.5t76 177.5t116.5 153t146 120.5t167 78t178 28.5q137 0 244.5 -64.5t166.5 -177t59 -253.5q0 -96 -28 -192t-76.5 -177.5t-116.5 -152.5t-146.5 -121t-168 -78.5t-178.5 -28.5q-136 0 -243 64.5t-165.5 177.5t-58.5 253zM198 666 q0 -124 52 -223.5t147 -157t216 -57.5q67 0 135 18.5t129.5 52.5t117.5 80.5t101.5 105t78.5 123t51.5 137.5t18.5 146q0 125 -52.5 225t-148 158t-216.5 58q-117 0 -232 -55.5t-202 -145.5t-141.5 -213.5t-54.5 -251.5zM408 700q0 73 30.5 146t80 129t119 91t142.5 35 q33 0 72 -4.5t81.5 -14.5t74.5 -24q4 -9 4 -18q3 -32 3 -114q0 -12 -8.5 -18.5t-15.5 -8t-13 -1.5q-9 0 -14 5q0 7 -1.5 16t-6.5 21t-12.5 23t-21 22.5t-31 19.5t-43.5 13.5t-57 5.5q-46 0 -92.5 -24t-83 -64.5t-59 -98t-22.5 -119.5q0 -49 15.5 -88.5t41.5 -63.5t57 -36 t63 -12q42 0 75 7t52.5 17t35 25t22 26t13.5 25t10 18q4 2 9 2q6 0 14 -2t13 -4l5 -3q-6 -17 -33.5 -77t-37.5 -64q-106 -43 -232 -43q-111 0 -180 71.5t-69 183.5z" />
<glyph unicode="&#xaa;" horiz-adv-x="866" d="M135 757q0 67 22 133.5t60 122t88.5 104t106 82t114 52.5t110.5 19q75 0 137 -21l-107 -503q-2 -5 -4.5 -25t-2.5 -26q0 -38 16 -38q34 0 125 91q4 0 10 -11.5t6 -18.5q-11 -17 -48.5 -51.5t-91 -66.5t-90.5 -32q-27 0 -43 23.5t-16 60.5q0 27 11 84q2 13 4.5 22.5 t4.5 15.5t2 10q-16 -26 -42 -58t-62.5 -69.5t-78 -62t-76.5 -24.5q-72 0 -113.5 51t-41.5 136zM264 819q0 -158 89 -158q43 0 95 56.5t93 138.5t59 159l36 168q-11 11 -35 17t-45 6q-49 0 -102 -35t-94.5 -90t-68.5 -125.5t-27 -136.5z" />
<glyph unicode="&#xab;" horiz-adv-x="1103" d="M62 552q0 17 10 32t24 22q73 42 132 79t113 75.5t86 63t91 71t88 69.5q11 -2 25 -11t17 -23q-4 -7 -44.5 -47.5t-96 -92t-111 -102.5t-93.5 -86l-39 -34q238 -342 238 -361q-14 -23 -48 -41q-53 69 -161 173t-209 181q-22 15 -22 32zM472 552q0 17 10.5 32t23.5 22 q61 35 115.5 69t93 59.5t82.5 58.5t71 54.5t73 58t76 58.5q11 -2 24.5 -11t16.5 -23q-5 -12 -101 -102.5t-189 -175.5l-93 -84l176 -260q60 -92 61 -101q-13 -23 -48 -41q-52 69 -160.5 173t-208.5 181q-23 15 -23 32z" />
<glyph unicode="&#xac;" horiz-adv-x="1231" d="M112 748q0 14 4.5 26.5t11.5 21t15.5 13.5t16.5 5h964l-107 -552q-7 -7 -33 -17t-47 -10q-13 0 -23 4.5t-9 13.5l85 463h-871q-7 18 -7 32z" />
<glyph unicode="&#xad;" horiz-adv-x="843" d="M119 488q0 24 15.5 65t31.5 42l518 27q14 0 14 -27q0 -25 -18.5 -70t-34.5 -46l-515 -25q-11 0 -11 34z" />
<glyph unicode="&#xae;" horiz-adv-x="1374" d="M169.5 731q-9.5 93 8.5 197q24 127 92.5 242t162 198.5t210.5 132.5t235 49q94 0 176.5 -31.5t142 -88t100 -134.5t50 -171t-8.5 -197q-14 -73 -42.5 -143t-69.5 -131.5t-91.5 -116t-109 -97t-122 -73.5t-132 -47.5t-135.5 -16.5q-94 0 -176.5 32t-141.5 89t-99 135.5 t-49.5 171.5zM238 781.5q6 -70.5 26 -131.5t58 -111.5t86.5 -86.5t111 -56t132.5 -20q104 0 207.5 44t186.5 118t143.5 176t82.5 214q16 92 8 173.5t-43.5 150.5t-88 119t-125.5 78t-157 28q-104 0 -207 -43.5t-185.5 -117t-143 -175t-82.5 -213.5q-16 -76 -10 -146.5z M431 638q0 3 3 6.5t4 5.5q16 2 27 4.5t19 5t12.5 7t8 8.5t5.5 13t3 16.5t3.5 21.5t5.5 26l75 386q9 50 9 66q0 13 -18 21t-32 8q-4 0 -4 5t3 12.5t3 10.5q12 -1 44 -4t55 -3q30 0 79 4.5t80 4.5q70 0 119.5 -36.5t49.5 -102.5q0 -114 -132 -180q-3 -2 -3 -7v-2 q2 -8 6.5 -22.5t11.5 -32.5t16 -38t19 -41.5t20 -41.5q12 -23 19 -35.5t17.5 -29t20 -24t22.5 -13t28 -5.5q0 -16 -4 -25q-14 -7 -41 -7q-35 0 -59 4t-46.5 18.5t-37.5 31.5t-34.5 54.5t-34.5 74.5t-41 104q-9 21 -39 21q-15 0 -21.5 -4t-8.5 -14l-38 -203v-25q0 -15 6 -19 q28 -13 44 -13q2 0 2 -7q0 -5 -5 -23q-86 5 -114 5q-29 0 -125 -5q0 4 -1 9.5t-1 8.5zM679 1003q0 -27 87 -27q51 0 82.5 43.5t31.5 99.5q0 46 -24 66.5t-63 20.5q-31 0 -48.5 -3t-22.5 -7.5t-6 -12.5l-32 -171q0 -2 -2.5 -5t-2.5 -4z" />
<glyph unicode="&#xaf;" horiz-adv-x="599" d="M46 1138q0 8 4 24t11 30t12 14h470q3 0 7 -4.5t4 -11.5q0 -14 -5.5 -36.5t-17.5 -36.5h-479q-6 7 -6 21z" />
<glyph unicode="&#xb0;" horiz-adv-x="606" d="M205 1179q0 71 39 133.5t97.5 98t119.5 35.5q74 0 122.5 -51.5t48.5 -129.5q0 -68 -37.5 -131t-97 -100.5t-121.5 -37.5q-74 0 -122.5 52.5t-48.5 130.5zM287 1195q0 -32 13 -58t37 -41t55 -15q61 0 109 51t48 117q0 32 -12.5 57.5t-36.5 40t-55 14.5q-62 0 -110 -49 t-48 -117z" />
<glyph unicode="&#xb1;" horiz-adv-x="1114" d="M-2 66q0 41 29 80h892q7 0 7 -18q0 -26 -5 -43.5t-23 -36.5h-889q-11 0 -11 18zM125 716q0 41 30 80h390l77 399q5 19 39.5 27.5t54.5 8.5q13 0 17.5 -5t2.5 -13l-82 -417h390q9 0 9 -19q0 -25 -5 -43t-22 -36h-390l-77 -406q-4 -16 -28.5 -26.5t-53.5 -10.5 q-30 0 -30 19l80 424h-392q-10 0 -10 18z" />
<glyph unicode="&#xb2;" horiz-adv-x="786" d="M105 618q68 60 184.5 173.5t173.5 177.5q128 146 128 274q0 56 -40 93t-93 37q-96 0 -174 -107q-1 0 -2 -2l-4 -5q-6 0 -14 17t-6 21q7 16 30.5 43t60 58.5t90 54t108.5 22.5q40 0 78.5 -11.5t71 -34t52 -59.5t19.5 -84q0 -45 -14 -87t-44 -85t-56.5 -73t-72.5 -77 q-94 -96 -296 -246l-18 -13h269q48 0 80 31.5t57 84.5q3 9 20 9q3 0 16.5 -8t15.5 -10q-32 -61 -109 -231h-502q-2 2 -5.5 16t-3.5 21z" />
<glyph unicode="&#xb3;" horiz-adv-x="720" d="M103 638q0 21 11.5 44t28.5 37.5t33 14.5t28.5 -7t19 -15t15.5 -22t14 -20q31 -36 100 -36q66 0 120 67t54 179q0 71 -39 111t-105 40q-41 0 -73 -10q-1 3 -4 6t-4 5t-1 5q0 28 2 32q35 7 69.5 19.5t66.5 32t56.5 43t39 53t14.5 60.5q0 44 -25.5 76.5t-67.5 32.5 q-24 0 -46.5 -8.5t-39.5 -21.5t-29.5 -26t-22.5 -24t-12 -13q-7 0 -13.5 14t-5.5 25q50 70 106.5 107.5t128.5 37.5q36 0 69.5 -15.5t58.5 -51.5t25 -85q0 -34 -16.5 -68t-43.5 -62t-55.5 -50t-57.5 -39q73 -5 130 -64.5t57 -124.5q0 -69 -30 -129.5t-76 -100.5t-101.5 -69 t-106 -42t-90.5 -13q-121 0 -169 34q-13 21 -13 41z" />
<glyph unicode="&#xb4;" horiz-adv-x="458" d="M23 1140q0 9 48 67.5t101 117t67 68.5q33 23 85 23q17 0 36 -5.5t36 -22t17 -41.5q0 -19 -86 -76.5t-177 -105.5t-109 -48q-5 0 -11.5 9t-6.5 14z" />
<glyph unicode="&#xb5;" horiz-adv-x="1124" d="M-25 -333q0 102 68 371t119 427q6 30 43 247t44 252q8 11 24 21.5t28 10.5q20 0 52 -25t46 -61q-5 -29 -47.5 -154.5t-87.5 -247.5q-18 -94 -18 -166q0 -80 19.5 -136t51.5 -56q16 0 32 5t33 17.5t31.5 23.5t32.5 33.5l30 37.5t31 44.5t29 45.5t29.5 50.5t27 48.5 t27.5 50q26 98 60.5 245t51.5 213q8 11 24 21.5t28 10.5t31 -10t38.5 -31t28.5 -45q-10 -30 -53 -137.5t-82 -200.5l-38 -93q-19 -95 -19.5 -168t24.5 -117t73 -44q57 0 114 57q6 -4 10.5 -24t2.5 -26q-23 -62 -78.5 -114t-108.5 -52q-26 0 -45.5 11t-32 28t-20 45 t-10.5 53.5t-2.5 62.5t1.5 63.5t4 64.5q-27 -48 -50.5 -86t-52 -79t-54.5 -70.5t-54 -54.5t-57 -37.5t-58 -12.5q-111 0 -111 222q-2 -10 -24 -89t-42.5 -175.5t-20.5 -162.5q0 -98 75 -216q-2 -16 -18.5 -30.5t-39 -23t-42.5 -8.5q-14 0 -28.5 6.5t-31.5 23t-27.5 53 t-10.5 88.5z" />
<glyph unicode="&#xb6;" horiz-adv-x="1101" d="M146 1003q0 79 26 151t70 125t99.5 96.5t115.5 71t117.5 42t107.5 14.5q68 0 165.5 -2.5t132.5 -2.5q37 0 69 1.5t72.5 5t73.5 4.5q6 -9 0.5 -33t-14.5 -33q-15 0 -41 -3.5t-52.5 -12.5t-31.5 -20q-23 -46 -44 -169q-106 -618 -143 -814q-27 -136 -79 -255t-116 -200 t-136.5 -127.5t-140.5 -46.5q-47 0 -78.5 16t-44.5 41q0 25 2 36q6 40 22.5 65.5t43.5 25.5q14 0 26 -3.5t23.5 -12.5t18 -15.5t19.5 -20.5q11 -11 17.5 -16.5t20 -11.5t28.5 -6q63 0 105.5 115.5t99.5 406.5l155 809q28 140 23 171q-5 23 -44 23q-36 0 -73 -40.5t-64 -102 t-44 -135.5t-17 -139q0 -191 80 -258q4 -2 13.5 -10.5t9.5 -12.5q0 -27 -39.5 -50.5t-88.5 -35.5t-87 -12q-67 0 -124 17t-97.5 46.5t-71.5 66.5t-49 80.5t-27 86t-9 84.5z" />
<glyph unicode="&#xb7;" horiz-adv-x="506" d="M123 575q0 62 48 110.5t105 48.5q29 0 51.5 -14t34.5 -37.5t12 -53.5q0 -62 -47 -112t-104 -50q-44 0 -72 30.5t-28 77.5z" />
<glyph unicode="&#xb8;" horiz-adv-x="367" d="M17.5 -310.5q-0.5 14.5 0.5 16.5q1 8 7 15.5t13.5 12t13.5 4.5q12 0 33.5 -15t39.5 -15q43 0 72.5 22.5t35.5 52.5q7 38 -9.5 58t-41.5 20q-19 0 -59 -16q-4 0 -12 12t-4 18q12 16 46 57.5t45 58.5h44l-48 -53h52q40 0 61 -33t12 -78q-10 -52 -44.5 -92t-83.5 -61 t-104 -21q-18 0 -39 7t-30 14q0 1 -0.5 15.5z" />
<glyph unicode="&#xb9;" horiz-adv-x="615" d="M126.5 604.5q2.5 22.5 7.5 22.5q19 0 66.5 9.5t52.5 20.5q14 28 23 79l84 431q21 110 14 126q-3 7 -9 7q-36 0 -121 -32q-12 11 -12 32q0 10 7 13q56 27 138 68.5t134 68.5t54 27h2q12 0 12 -27q-23 -46 -39 -130l-107 -540q-16 -84 -14 -123q2 -11 47.5 -20.5t59.5 -9.5 q4 0 5.5 -11.5t-0.5 -18.5q-1 -2 -2 -5.5t-1.5 -6t-1.5 -5t-2 -3.5q-157 7 -226 7q-13 0 -171 -7q-3 5 -0.5 27.5z" />
<glyph unicode="&#xba;" horiz-adv-x="772" d="M144 791q0 82 34 167.5t88.5 152.5t127.5 109.5t146 42.5q52 0 92 -17.5t64.5 -49t37 -74t12.5 -94.5q0 -82 -34.5 -166.5t-89.5 -150t-128.5 -107t-146.5 -41.5q-69 0 -115.5 29t-67 79t-20.5 120zM280 823q0 -63 12.5 -110.5t35 -73.5t53.5 -26q52 0 96.5 38.5t72.5 98 t43.5 127t15.5 128.5q0 99 -23 153.5t-68 54.5q-53 0 -99.5 -38.5t-75.5 -97t-46 -126t-17 -128.5z" />
<glyph unicode="&#xbb;" horiz-adv-x="1105" d="M30 201q3 7 43.5 47.5t96 92t111 102.5t93.5 85l39 35q-237 342 -237 360q13 24 47 41q53 -68 161 -172t209 -181q23 -15 23 -32t-10.5 -32t-24.5 -23q-72 -41 -131.5 -78t-113 -75.5t-86 -63t-91.5 -71.5t-88 -70q-11 3 -24.5 12t-16.5 23zM440 201q5 12 101 102.5 t189 175.5l93 84q-237 342 -237 360q13 24 48 41q52 -68 160.5 -172t208.5 -181q23 -15 23 -32t-10.5 -32t-23.5 -23q-61 -34 -115.5 -68t-93 -60t-82.5 -58.5t-71 -54t-73 -58t-76 -59.5q-11 3 -24.5 12t-16.5 23z" />
<glyph unicode="&#xbc;" horiz-adv-x="1452" d="M91 604.5q3 22.5 8 22.5q19 0 66.5 9.5t51.5 20.5q15 28 23 79l84 431q21 110 15 126q-3 7 -10 7q-36 0 -121 -32q-11 11 -11 32q0 10 7 13q56 27 137.5 68.5t134 68.5t54.5 27h2q11 0 11 -27q-22 -46 -38 -130l-108 -540q-16 -84 -13 -123q1 -6 16.5 -11.5t34.5 -9.5 t35.5 -6.5t20.5 -2.5q3 0 4.5 -11.5t-0.5 -18.5l-6 -20q-158 7 -226 7q-14 0 -171 -7q-4 5 -1 27.5zM252 9q0 5 4 14l1019 1441q2 0 5.5 -0.5t13 -1.5t16 -3.5t12.5 -7.5t6 -12q0 -9 -3 -12l-1016 -1441q-1 1 -6.5 0.5t-14 0.5t-17 3t-14 7t-5.5 12zM676 255.5 q-2 10.5 0 18.5l599 633q8 8 24.5 12t26 4t18 -12.5t6.5 -21.5l-107 -542h80q7 0 8 -24.5t-3 -46.5q-3 -17 -12 -34h-91l-46 -240q-32 -7 -82 -7q-29 0 -49.5 3t-18.5 9l46 235h-390q-7 3 -9 13.5zM824 347h271l78 369z" />
<glyph unicode="&#xbd;" horiz-adv-x="1570" d="M92.5 604.5q2.5 22.5 7.5 22.5q19 0 66.5 9.5t52.5 20.5q14 28 22 79l85 431q20 110 14 126q-3 7 -10 7q-35 0 -121 -32q-11 11 -11 32q0 10 7 13q56 27 137.5 68.5t134 68.5t54.5 27h2q12 0 12 -27q-23 -46 -39 -130l-107 -540q-16 -84 -14 -123q1 -6 16.5 -11.5 t35 -9.5t35.5 -6.5t20 -2.5q3 0 5 -11.5t0 -18.5l-7 -20q-157 7 -226 7q-14 0 -171 -7q-3 5 -0.5 27.5zM253 9q0 5 4 14l1020 1441q2 0 5.5 -0.5t12.5 -1.5t16 -3.5t12.5 -7.5t5.5 -12q0 -9 -2 -12l-1017 -1441q-1 1 -6.5 0.5t-14 0.5t-16.5 3t-14 7t-6 12zM821 41 q67 60 184 173.5t173 177.5q128 147 128 274q0 56 -39.5 93t-92.5 37q-29 0 -57 -10.5t-45 -21t-37.5 -32t-25 -27t-17.5 -23.5q-7 0 -14 17t-5 21q8 16 31 43t60 58.5t90.5 54t108.5 22.5q40 0 78 -11.5t70.5 -33.5t52.5 -59.5t20 -84.5q0 -45 -14 -87t-44.5 -85t-56.5 -73 t-72 -76q-24 -25 -54.5 -52t-60 -51.5t-59.5 -48.5t-55.5 -43.5t-45.5 -34t-31 -22.5l-11 -8h271q34 0 61.5 17.5t44 41t31.5 57.5q3 9 21 9q3 0 16 -8t16 -10q-33 -61 -110 -230h-501q-2 1 -5.5 15.5t-3.5 20.5z" />
<glyph unicode="&#xbe;" horiz-adv-x="1484" d="M73 638q0 21 11.5 44t28.5 37.5t33 14.5q13 0 23.5 -4t18 -11.5t12.5 -14.5t12 -17.5l11 -16.5q31 -36 101 -36q66 0 119.5 67t53.5 179q0 71 -39 111t-105 40q-41 0 -73 -10q-1 3 -3.5 6t-4 5t-1.5 5q0 28 3 32q59 11 114 38.5t93.5 73t38.5 96.5q0 44 -25.5 76.5 t-68.5 32.5q-23 0 -46 -8.5t-39.5 -21.5t-29.5 -26t-22.5 -24t-12.5 -13q-7 0 -13.5 14t-4.5 25q50 70 106 107.5t128 37.5q36 0 69.5 -15.5t58.5 -51.5t25 -85q0 -34 -16.5 -68t-43 -62t-55 -50t-58.5 -39q73 -5 130 -64.5t57 -124.5q0 -69 -30 -129.5t-76 -100.5 t-101.5 -69t-106 -42t-90.5 -13q-120 0 -168 34q-14 21 -14 41zM249 9q0 5 4 14l1019 1441q2 0 5.5 -0.5t13 -1.5t16 -3.5t12.5 -7.5t6 -12q0 -9 -3 -12l-1016 -1441q-1 1 -6.5 0.5t-14 0.5t-17 3t-14 7t-5.5 12zM707 274l599 633q8 8 24.5 12t26 4t18 -12.5t7.5 -21.5 l-107 -542h79q7 0 8 -24.5t-3 -46.5q-3 -17 -12 -34h-91l-45 -240q-32 -7 -82 -7q-30 0 -50 3t-19 9l46 235h-390q-6 3 -8.5 13.5t-0.5 18.5zM855 347h271l78 369z" />
<glyph unicode="&#xbf;" horiz-adv-x="706" d="M-75 -182q0 73 23 129.5t77 107.5q31 28 124 86t138 89q42 29 59 59.5t17 77.5q0 43 -30.5 84t-58.5 62q0 5 3 12t8.5 14t10.5 10q22 0 59 -18.5t74.5 -49t65 -75t27.5 -89.5q0 -66 -29.5 -109.5t-82.5 -79.5q-187 -128 -264 -183q-105 -73 -105 -173q0 -65 33 -101 t86 -36q27 0 48.5 11t35.5 26.5t27.5 30.5t32.5 26t43 11q23 0 39.5 -12t24 -32t10.5 -38t3 -36q-9 -29 -72.5 -64t-123.5 -35q-82 0 -153 44.5t-110.5 112t-39.5 138.5zM331 834q0 31 13.5 61t35.5 51.5t50 34.5t56 13q43 0 69 -29.5t26 -75.5q0 -31 -12.5 -61t-33 -51.5 t-47.5 -34t-55 -12.5q-29 0 -52.5 13.5t-36.5 37.5t-13 53z" />
<glyph unicode="&#xc0;" horiz-adv-x="1336" d="M-121 -7q-4 5 1 29.5t12 36.5q26 0 69 12t61 32q20 21 38 45t37 54.5t32 53t35 61.5l629 1129q14 25 44.5 45.5t46.5 20.5q5 0 11 -7l197 -1218q5 -32 11.5 -72.5t9.5 -59.5t4 -23q3 -15 14 -28t26 -20.5t30.5 -12.5t31.5 -7.5t25.5 -3.5t15.5 -1q5 -13 1.5 -36t-8.5 -30 q-20 1 -74 4.5t-93 5.5t-81 2q-34 0 -65.5 -1.5t-53 -3t-55 -3.5t-63.5 -4q-7 9 -2 33.5t15 32.5q40 0 69.5 8t45 24t15.5 39q0 68 -6 112l-51 342h-453q-109 -198 -162 -299q-66 -129 -66 -171q0 -17 19 -28.5t46 -17t46.5 -7.5t29.5 -2q3 -5 -0.5 -30t-8.5 -36 q-31 2 -66 5t-65.5 5t-71.5 2q-43 0 -75.5 -2t-72 -5t-75.5 -5zM442 659h399l-87 561zM542 1815q0 20 31 35t79 15q12 0 34 -4t27 -7q44 -29 143 -115t99 -97q0 -4 -3 -9.5t-6.5 -9.5t-4.5 -4q-19 0 -116 36.5t-190 85t-93 74.5z" />
<glyph unicode="&#xc1;" horiz-adv-x="1336" d="M-121 -7q-4 5 1 29.5t12 36.5q26 0 69 12t61 32q20 21 38 45t37 54.5t32 53t35 61.5l629 1129q14 25 44.5 45.5t46.5 20.5q5 0 11 -7l197 -1218q5 -32 11.5 -72.5t9.5 -59.5t4 -23q3 -15 14 -28t26 -20.5t30.5 -12.5t31.5 -7.5t25.5 -3.5t15.5 -1q5 -13 1.5 -36t-8.5 -30 q-20 1 -74 4.5t-93 5.5t-81 2q-34 0 -65.5 -1.5t-53 -3t-55 -3.5t-63.5 -4q-7 9 -2 33.5t15 32.5q40 0 69.5 8t45 24t15.5 39q0 68 -6 112l-51 342h-453q-109 -198 -162 -299q-66 -129 -66 -171q0 -17 19 -28.5t46 -17t46.5 -7.5t29.5 -2q3 -5 -0.5 -30t-8.5 -36 q-31 2 -66 5t-65.5 5t-71.5 2q-43 0 -75.5 -2t-72 -5t-75.5 -5zM442 659h399l-87 561zM793 1644q0 12 98.5 98t143.5 114q5 3 27 7t34 4q48 0 79 -15t31 -35q0 -26 -93.5 -74.5t-190 -85t-115.5 -36.5q-2 0 -8 9t-6 14z" />
<glyph unicode="&#xc2;" horiz-adv-x="1336" d="M-121 -7q-4 5 1 29.5t12 36.5q26 0 69 12t61 32q20 21 38 45t37 54.5t32 53t35 61.5l629 1129q14 25 44.5 45.5t46.5 20.5q5 0 11 -7l197 -1218q5 -32 11.5 -72.5t9.5 -59.5t4 -23q3 -15 14 -28t26 -20.5t30.5 -12.5t31.5 -7.5t25.5 -3.5t15.5 -1q5 -13 1.5 -36t-8.5 -30 q-20 1 -74 4.5t-93 5.5t-81 2q-34 0 -65.5 -1.5t-53 -3t-55 -3.5t-63.5 -4q-7 9 -2 33.5t15 32.5q40 0 69.5 8t45 24t15.5 39q0 68 -6 112l-51 342h-453q-109 -198 -162 -299q-66 -129 -66 -171q0 -17 19 -28.5t46 -17t46.5 -7.5t29.5 -2q3 -5 -0.5 -30t-8.5 -36 q-31 2 -66 5t-65.5 5t-71.5 2q-43 0 -75.5 -2t-72 -5t-75.5 -5zM442 659h399l-87 561zM636 1644q160 120 301 246q19 16 31 16q15 0 23 -16q78 -125 178 -246q-1 -7 -6.5 -12t-13 -8t-14.5 -3l-203 135q-164 -80 -274 -135q-10 0 -17 6.5t-5 16.5z" />
<glyph unicode="&#xc3;" horiz-adv-x="1336" d="M-121 -7q-4 5 1 29.5t12 36.5q26 0 69 12t61 32q20 21 38 45t37 54.5t32 53t35 61.5l629 1129q14 25 44.5 45.5t46.5 20.5q5 0 11 -7l197 -1218q5 -32 11.5 -72.5t9.5 -59.5t4 -23q3 -15 14 -28t26 -20.5t30.5 -12.5t31.5 -7.5t25.5 -3.5t15.5 -1q5 -13 1.5 -36t-8.5 -30 q-20 1 -74 4.5t-93 5.5t-81 2q-34 0 -65.5 -1.5t-53 -3t-55 -3.5t-63.5 -4q-7 9 -2 33.5t15 32.5q40 0 69.5 8t45 24t15.5 39q0 68 -6 112l-51 342h-453q-109 -198 -162 -299q-66 -129 -66 -171q0 -17 19 -28.5t46 -17t46.5 -7.5t29.5 -2q3 -5 -0.5 -30t-8.5 -36 q-31 2 -66 5t-65.5 5t-71.5 2q-43 0 -75.5 -2t-72 -5t-75.5 -5zM442 659h399l-87 561zM572 1708q0 41 43 84q78 75 178 75q45 0 75 -6t64 -26q26 -14 37.5 -20.5t34.5 -16t45 -13.5t47 -4q74 0 148 86q14 -4 14 -22q0 -44 -41 -85q-78 -75 -178 -75q-30 0 -50.5 2t-43 9.5 t-45.5 20.5q-33 19 -50 27.5t-49 18t-65 9.5q-74 0 -148 -87q-16 5 -16 23z" />
<glyph unicode="&#xc4;" horiz-adv-x="1336" d="M-121 -7q-4 5 1 29.5t12 36.5q26 0 69 12t61 32q20 21 38 45t37 54.5t32 53t35 61.5l629 1129q14 25 44.5 45.5t46.5 20.5q5 0 11 -7l197 -1218q5 -32 11.5 -72.5t9.5 -59.5t4 -23q3 -15 14 -28t26 -20.5t30.5 -12.5t31.5 -7.5t25.5 -3.5t15.5 -1q5 -13 1.5 -36t-8.5 -30 q-20 1 -74 4.5t-93 5.5t-81 2q-34 0 -65.5 -1.5t-53 -3t-55 -3.5t-63.5 -4q-7 9 -2 33.5t15 32.5q40 0 69.5 8t45 24t15.5 39q0 68 -6 112l-51 342h-453q-109 -198 -162 -299q-66 -129 -66 -171q0 -17 19 -28.5t46 -17t46.5 -7.5t29.5 -2q3 -5 -0.5 -30t-8.5 -36 q-31 2 -66 5t-65.5 5t-71.5 2q-43 0 -75.5 -2t-72 -5t-75.5 -5zM442 659h399l-87 561zM610 1774q4 19 12.5 36.5t21 31.5t27.5 24.5t32.5 16t34.5 5.5q45 0 69 -33t16 -81q-9 -48 -47.5 -81t-82.5 -33q-45 0 -68 33t-15 81zM994 1774q8 48 45.5 81t81.5 33q45 0 69 -33 t16 -81q-9 -48 -46.5 -81t-81.5 -33q-29 0 -50.5 15t-30.5 41t-3 58z" />
<glyph unicode="&#xc5;" horiz-adv-x="1336" d="M-121 -7q-4 5 1 29.5t12 36.5q26 0 69 12t61 32q20 21 38 45t37 54.5t32 53t35 61.5l629 1129q14 25 44.5 45.5t46.5 20.5q5 0 11 -7l197 -1218q5 -32 11.5 -72.5t9.5 -59.5t4 -23q3 -15 14 -28t26 -20.5t30.5 -12.5t31.5 -7.5t25.5 -3.5t15.5 -1q5 -13 1.5 -36t-8.5 -30 q-20 1 -74 4.5t-93 5.5t-81 2q-34 0 -65.5 -1.5t-53 -3t-55 -3.5t-63.5 -4q-7 9 -2 33.5t15 32.5q40 0 69.5 8t45 24t15.5 39q0 68 -6 112l-51 342h-453q-109 -198 -162 -299q-66 -129 -66 -171q0 -17 19 -28.5t46 -17t46.5 -7.5t29.5 -2q3 -5 -0.5 -30t-8.5 -36 q-31 2 -66 5t-65.5 5t-71.5 2q-43 0 -75.5 -2t-72 -5t-75.5 -5zM442 659h399l-87 561zM722 1707.5q17 83.5 85 143.5t145 60t119 -59.5t25 -143.5q-8 -42 -30 -79.5t-51.5 -65.5t-67 -44t-74.5 -16q-78 0 -123 60.5t-28 144zM793 1707.5q-7 -34.5 3.5 -64t34.5 -46.5t55 -17 q48 0 88.5 37.5t51 90.5t-15.5 89t-73 36q-32 0 -62.5 -16.5t-52.5 -45.5t-29 -63.5z" />
<glyph unicode="&#xc6;" horiz-adv-x="1789" d="M-133.5 25q1.5 30 7.5 30q25 0 75 14t71 34q90 80 180 214l703 1019q11 23 11 34q0 22 -17 38.5t-51 16.5q-7 6 -6.5 33t6.5 38l223 2q95 0 325.5 8t349.5 8q1 -51 5.5 -102.5t11.5 -112.5t10 -95q-11 -12 -41 -12q-27 0 -27 16q-9 67 -28.5 112.5t-49 70.5t-63.5 35 t-78 10h-182q-23 0 -49.5 -1t-60.5 -7t-39 -17q-18 -42 -32 -164l-47 -456q-2 -8 23 -11t66 -3h111q40 0 64.5 0.5t49 4.5t37.5 6t27 12.5t20.5 17t16.5 26.5t15 33.5t16 44.5q5 13 7 20q7 16 35 16q24 0 31 -12l-45 -431q-9 -9 -37 -9q-26 0 -29 18q-13 91 -21.5 119.5 t-22.5 40.5q-26 18 -223 18q-151 0 -153 -20l-43 -433q0 -5 -2 -28t-3 -40t-2 -38.5t0 -35t5 -16.5q9 -8 19.5 -13t31.5 -7t38.5 -2.5t58.5 -0.5h100q170 0 271 71q95 65 160 230q7 14 32 14q16 0 32.5 -4.5t19.5 -9.5q-11 -24 -55 -119t-68.5 -154.5t-35.5 -104.5 q-109 0 -341.5 4.5t-379.5 4.5q-49 0 -120 -1.5t-117 -3.5l-45 -2q-4 10 0.5 42t12.5 36q16 0 48.5 4t69.5 15t49 24q25 30 34.5 66t15.5 103l39 417h-331l-276 -401q-102 -147 -102 -185q0 -24 51 -41.5t79 -17.5v-13.5t-2 -27.5t-5 -21q-30 2 -69 5t-71.5 5t-74.5 2 q-56 0 -122.5 -5t-96.5 -7q-2 2 -0.5 32zM611 777h282l46 477z" />
<glyph unicode="&#xc7;" horiz-adv-x="1470" d="M135 604q0 141 35.5 268t99 227t151 181t190 133.5t217 80t232.5 24.5q62 -1 133 -11t115.5 -20t118.5 -28q-14 -249 -23 -333q0 -5 -5.5 -8t-12.5 -3q-29 0 -52 11q5 89 -40 163.5t-125 116.5t-175 42q-133 0 -250.5 -57t-205 -159.5t-138 -255t-49.5 -333.5 q0 -85 15 -166.5t50.5 -160t88 -137.5t132.5 -95t179 -36q300 0 481 346q13 0 29 -4.5t26 -8.5l9 -5q-7 -36 -73.5 -164.5t-90.5 -147.5q-90 -47 -191 -64.5t-254 -17.5q-135 0 -251.5 50t-196 134.5t-124.5 198t-45 239.5zM517 -355q-1 18 1 20q3 14 16 25t25 11 q13 0 38.5 -17t47.5 -17q51 0 84.5 26t41.5 63q7 44 -12.5 67.5t-47.5 23.5q-27 0 -70 -18q-3 0 -8.5 6t-9.5 14.5t-1 13.5q4 5 47.5 59.5t60.5 77.5h52l-57 -62h64q48 0 71.5 -38.5t12.5 -93.5q-18 -92 -96.5 -147.5t-179.5 -55.5q-21 0 -45 7t-34 16q0 1 -1 19z" />
<glyph unicode="&#xc8;" horiz-adv-x="1263" d="M-8.5 26q4.5 24 13.5 33q7 0 19.5 1t29 3t34 5t32.5 7t26 9.5t14 11.5t6.5 15t6 16.5t5.5 20t5 20t5.5 23.5t5 23t5 26t4.5 24l190 974q25 128 20 169q-1 16 -54 26t-85 10q-5 8 -0.5 33t14.5 33q22 -1 78.5 -4.5t94.5 -5t75 -1.5q95 0 330 8t354 8q-5 -28 -1 -159.5 t4 -150.5q-12 -12 -42 -12q-25 0 -25 16q-4 67 -19.5 112.5t-43 70.5t-60.5 35t-77 10h-183q-22 0 -49 -1t-61.5 -7t-39.5 -17q-24 -48 -46 -164l-84 -438q-2 -7 23 -10t66 -3h112h63.5t49 4t37.5 6t28 12.5t22 17t18 26t17 33t20 44.5q6 13 9 21q6 16 37 16q24 0 31 -12 l-82 -430q-9 -10 -36 -10q-26 0 -30 19q-5 91 -10.5 119.5t-18.5 39.5q-24 18 -222 18q-152 0 -157 -20l-89 -451q-29 -145 -16 -158q11 -11 30.5 -16t41 -6t74.5 -1h100q175 0 283 71q101 67 178 230q7 14 34 14q16 0 31.5 -4.5t18.5 -9.5q-14 -28 -64 -120t-79.5 -152.5 t-45.5 -105.5q-108 0 -340 4.5t-380 4.5q-53 0 -134 -3.5t-119 -3.5q-7 9 -2.5 33zM559 1815q0 20 31 35t78 15q13 0 35 -4t27 -7q44 -29 143 -115t99 -97q0 -5 -6 -14t-8 -9q-19 0 -116 36.5t-190 85t-93 74.5z" />
<glyph unicode="&#xc9;" horiz-adv-x="1263" d="M-8.5 26q4.5 24 13.5 33q7 0 19.5 1t29 3t34 5t32.5 7t26 9.5t14 11.5t6.5 15t6 16.5t5.5 20t5 20t5.5 23.5t5 23t5 26t4.5 24l190 974q25 128 20 169q-1 16 -54 26t-85 10q-5 8 -0.5 33t14.5 33q22 -1 78.5 -4.5t94.5 -5t75 -1.5q95 0 330 8t354 8q-5 -28 -1 -159.5 t4 -150.5q-12 -12 -42 -12q-25 0 -25 16q-4 67 -19.5 112.5t-43 70.5t-60.5 35t-77 10h-183q-22 0 -49 -1t-61.5 -7t-39.5 -17q-24 -48 -46 -164l-84 -438q-2 -7 23 -10t66 -3h112h63.5t49 4t37.5 6t28 12.5t22 17t18 26t17 33t20 44.5q6 13 9 21q6 16 37 16q24 0 31 -12 l-82 -430q-9 -10 -36 -10q-26 0 -30 19q-5 91 -10.5 119.5t-18.5 39.5q-24 18 -222 18q-152 0 -157 -20l-89 -451q-29 -145 -16 -158q11 -11 30.5 -16t41 -6t74.5 -1h100q175 0 283 71q101 67 178 230q7 14 34 14q16 0 31.5 -4.5t18.5 -9.5q-14 -28 -64 -120t-79.5 -152.5 t-45.5 -105.5q-108 0 -340 4.5t-380 4.5q-53 0 -134 -3.5t-119 -3.5q-7 9 -2.5 33zM664 1644q0 7 48.5 52t107 93.5t86.5 66.5q2 2 10 4t17 3.5t18.5 2.5t15.5 1q48 0 79 -15t31 -35q0 -26 -93.5 -74.5t-190 -85t-115.5 -36.5q-1 0 -3.5 2.5t-4.5 6t-4 7.5t-2 7z" />
<glyph unicode="&#xca;" horiz-adv-x="1263" d="M-8.5 26q4.5 24 13.5 33q7 0 19.5 1t29 3t34 5t32.5 7t26 9.5t14 11.5t6.5 15t6 16.5t5.5 20t5 20t5.5 23.5t5 23t5 26t4.5 24l190 974q25 128 20 169q-1 16 -54 26t-85 10q-5 8 -0.5 33t14.5 33q22 -1 78.5 -4.5t94.5 -5t75 -1.5q95 0 330 8t354 8q-5 -28 -1 -159.5 t4 -150.5q-12 -12 -42 -12q-25 0 -25 16q-4 67 -19.5 112.5t-43 70.5t-60.5 35t-77 10h-183q-22 0 -49 -1t-61.5 -7t-39.5 -17q-24 -48 -46 -164l-84 -438q-2 -7 23 -10t66 -3h112h63.5t49 4t37.5 6t28 12.5t22 17t18 26t17 33t20 44.5q6 13 9 21q6 16 37 16q24 0 31 -12 l-82 -430q-9 -10 -36 -10q-26 0 -30 19q-5 91 -10.5 119.5t-18.5 39.5q-24 18 -222 18q-152 0 -157 -20l-89 -451q-29 -145 -16 -158q11 -11 30.5 -16t41 -6t74.5 -1h100q175 0 283 71q101 67 178 230q7 14 34 14q16 0 31.5 -4.5t18.5 -9.5q-14 -28 -64 -120t-79.5 -152.5 t-45.5 -105.5q-108 0 -340 4.5t-380 4.5q-53 0 -134 -3.5t-119 -3.5q-7 9 -2.5 33zM568 1644q160 120 301 246q20 16 32 16q15 0 23 -16q77 -125 178 -246q-2 -10 -12.5 -16.5t-22.5 -6.5l-202 135q-165 -80 -274 -135q-5 0 -9.5 1.5t-8 4.5t-5 7.5t-0.5 9.5z" />
<glyph unicode="&#xcb;" horiz-adv-x="1263" d="M-8.5 26q4.5 24 13.5 33q7 0 19.5 1t29 3t34 5t32.5 7t26 9.5t14 11.5t6.5 15t6 16.5t5.5 20t5 20t5.5 23.5t5 23t5 26t4.5 24l190 974q25 128 20 169q-1 16 -54 26t-85 10q-5 8 -0.5 33t14.5 33q22 -1 78.5 -4.5t94.5 -5t75 -1.5q95 0 330 8t354 8q-5 -28 -1 -159.5 t4 -150.5q-12 -12 -42 -12q-25 0 -25 16q-4 67 -19.5 112.5t-43 70.5t-60.5 35t-77 10h-183q-22 0 -49 -1t-61.5 -7t-39.5 -17q-24 -48 -46 -164l-84 -438q-2 -7 23 -10t66 -3h112h63.5t49 4t37.5 6t28 12.5t22 17t18 26t17 33t20 44.5q6 13 9 21q6 16 37 16q24 0 31 -12 l-82 -430q-9 -10 -36 -10q-26 0 -30 19q-5 91 -10.5 119.5t-18.5 39.5q-24 18 -222 18q-152 0 -157 -20l-89 -451q-29 -145 -16 -158q11 -11 30.5 -16t41 -6t74.5 -1h100q175 0 283 71q101 67 178 230q7 14 34 14q16 0 31.5 -4.5t18.5 -9.5q-14 -28 -64 -120t-79.5 -152.5 t-45.5 -105.5q-108 0 -340 4.5t-380 4.5q-53 0 -134 -3.5t-119 -3.5q-7 9 -2.5 33zM539 1774q8 48 45.5 81t81.5 33q45 0 69 -33t16 -81q-9 -48 -47.5 -81t-82.5 -33q-45 0 -68 33t-14 81zM922 1774q8 48 45.5 81t81.5 33q45 0 69 -33t16 -81q-9 -48 -46 -81t-82 -33 q-29 0 -50.5 15t-30.5 41t-3 58z" />
<glyph unicode="&#xcc;" horiz-adv-x="713" d="M-8.5 26q4.5 24 13.5 33q7 0 19.5 1t29 3t34 5t32.5 7t26 9.5t14 11.5t6.5 15t6 16.5t5.5 20t5 20t5.5 23.5t5 23t5 26t4.5 24l190 974q25 128 20 169q-1 16 -54 26t-85 10q-5 8 -0.5 33t14.5 33q22 -1 78.5 -4.5t94.5 -5t75 -1.5t76 1.5t95 5t80 4.5q6 -9 0.5 -33 t-14.5 -33q-32 0 -88.5 -10t-63.5 -26q-4 -7 -7 -15.5t-5.5 -16t-6 -20.5t-5.5 -20t-5 -23.5t-4.5 -23t-5.5 -25.5t-5 -25l-189 -974q-1 -4 -3 -13q-24 -121 -20 -155q2 -17 55 -27t84 -10q6 -8 1.5 -33t-14.5 -33q-24 1 -78 4.5t-91.5 5.5t-74.5 2t-76 -2t-96.5 -5.5 t-80.5 -4.5q-7 9 -2.5 33zM281 1815q0 20 31 35t78 15q13 0 35 -4t27 -7q44 -29 143 -115t99 -97q0 -4 -3 -9.5t-6.5 -9.5t-4.5 -4q-19 0 -116 36.5t-190 85t-93 74.5z" />
<glyph unicode="&#xcd;" horiz-adv-x="713" d="M-8.5 26q4.5 24 13.5 33q7 0 19.5 1t29 3t34 5t32.5 7t26 9.5t14 11.5t6.5 15t6 16.5t5.5 20t5 20t5.5 23.5t5 23t5 26t4.5 24l190 974q25 128 20 169q-1 16 -54 26t-85 10q-5 8 -0.5 33t14.5 33q22 -1 78.5 -4.5t94.5 -5t75 -1.5t76 1.5t95 5t80 4.5q6 -9 0.5 -33 t-14.5 -33q-32 0 -88.5 -10t-63.5 -26q-4 -7 -7 -15.5t-5.5 -16t-6 -20.5t-5.5 -20t-5 -23.5t-4.5 -23t-5.5 -25.5t-5 -25l-189 -974q-1 -4 -3 -13q-24 -121 -20 -155q2 -17 55 -27t84 -10q6 -8 1.5 -33t-14.5 -33q-24 1 -78 4.5t-91.5 5.5t-74.5 2t-76 -2t-96.5 -5.5 t-80.5 -4.5q-7 9 -2.5 33zM404 1644q0 12 98.5 98t143.5 114q5 3 27 7t34 4q48 0 79 -15t31 -35q0 -26 -93.5 -74.5t-190 -85t-115.5 -36.5q-1 0 -3.5 2.5t-4.5 6t-4 7.5t-2 7z" />
<glyph unicode="&#xce;" horiz-adv-x="713" d="M-8.5 26q4.5 24 13.5 33q7 0 19.5 1t29 3t34 5t32.5 7t26 9.5t14 11.5t6.5 15t6 16.5t5.5 20t5 20t5.5 23.5t5 23t5 26t4.5 24l190 974q25 128 20 169q-1 16 -54 26t-85 10q-5 8 -0.5 33t14.5 33q22 -1 78.5 -4.5t94.5 -5t75 -1.5t76 1.5t95 5t80 4.5q6 -9 0.5 -33 t-14.5 -33q-32 0 -88.5 -10t-63.5 -26q-4 -7 -7 -15.5t-5.5 -16t-6 -20.5t-5.5 -20t-5 -23.5t-4.5 -23t-5.5 -25.5t-5 -25l-189 -974q-1 -4 -3 -13q-24 -121 -20 -155q2 -17 55 -27t84 -10q6 -8 1.5 -33t-14.5 -33q-24 1 -78 4.5t-91.5 5.5t-74.5 2t-76 -2t-96.5 -5.5 t-80.5 -4.5q-7 9 -2.5 33zM338 1644q160 120 301 246q20 16 32 16q15 0 23 -16q77 -125 177 -246q0 -4 -2.5 -7.5t-6 -6.5t-8 -5t-9 -3t-8.5 -1l-203 135q-164 -80 -273 -135q-5 0 -9.5 1.5t-8 4.5t-5 7.5t-0.5 9.5z" />
<glyph unicode="&#xcf;" horiz-adv-x="713" d="M-8.5 26q4.5 24 13.5 33q7 0 19.5 1t29 3t34 5t32.5 7t26 9.5t14 11.5t6.5 15t6 16.5t5.5 20t5 20t5.5 23.5t5 23t5 26t4.5 24l190 974q25 128 20 169q-1 16 -54 26t-85 10q-5 8 -0.5 33t14.5 33q22 -1 78.5 -4.5t94.5 -5t75 -1.5t76 1.5t95 5t80 4.5q6 -9 0.5 -33 t-14.5 -33q-32 0 -88.5 -10t-63.5 -26q-4 -7 -7 -15.5t-5.5 -16t-6 -20.5t-5.5 -20t-5 -23.5t-4.5 -23t-5.5 -25.5t-5 -25l-189 -974q-1 -4 -3 -13q-24 -121 -20 -155q2 -17 55 -27t84 -10q6 -8 1.5 -33t-14.5 -33q-24 1 -78 4.5t-91.5 5.5t-74.5 2t-76 -2t-96.5 -5.5 t-80.5 -4.5q-7 9 -2.5 33zM299.5 1794.5q8.5 42.5 44.5 73.5t76 31q39 0 62.5 -32t14.5 -75q-8 -42 -43 -72.5t-75 -30.5t-64 31.5t-15.5 74zM686.5 1794.5q8.5 42.5 46 73.5t77.5 31q39 0 61.5 -32t13.5 -75q-8 -42 -43.5 -72.5t-75 -30.5t-64 31.5t-16 74z" />
<glyph unicode="&#xd0;" horiz-adv-x="1559" d="M-6.5 26q5.5 24 14.5 33q32 0 89 10t64 27q3 6 6.5 15t6 16.5t5.5 20t5 20t5.5 23.5t5 23t5 26t4.5 24l190 974q1 5 2 14q25 121 20 155q-1 16 -54 26t-85 10q-5 8 -1.5 33t13.5 33q22 -1 78.5 -4.5t94.5 -5t75 -1.5q40 0 150 1t158 1q121 0 223 -25.5t177 -72 t130.5 -113t83 -149t34 -178t-15.5 -200.5q-15 -75 -37.5 -144.5t-56 -139t-78 -130t-100.5 -115.5t-127 -98t-153.5 -75t-184 -49t-214.5 -18h-531q-7 9 -1.5 33zM164.5 723q-1.5 9 1.5 16q0 1 1 8t2 12.5t3.5 12.5t6 13t7.5 11h753q6 0 9.5 -5.5t1.5 -13.5q-9 -44 -23 -63 h-755q-6 0 -7.5 9zM369 91q14 -32 166 -32q99 0 192 25t178.5 78t154.5 129t120.5 184t77.5 239q31 154 21.5 273t-47.5 204.5t-106.5 140.5t-155.5 81t-193 26q-23 0 -50 -1.5t-62.5 -7.5t-40.5 -16.5t-10 -23.5t-10 -34l-7.5 -31.5t-8.5 -41.5t-7 -38l-194 -990 q-7 -32 -15 -93.5t-3 -70.5z" />
<glyph unicode="&#xd1;" horiz-adv-x="1668" d="M-24.5 21q3.5 21 14.5 38q30 0 95 14t79 32q18 25 29 57.5t23 97.5l192 989q12 70 14 97.5t-5 57.5q-6 18 -64 28.5t-91 10.5q-5 20 -1 38.5t12 27.5q30 -1 60 -3t47 -3t39.5 -2t47.5 -1q68 0 187 9q30 -75 147 -283.5t257 -458.5t209 -398l169 864q13 66 14.5 100 t-7.5 65q-8 21 -62 33t-91 12q-5 13 -2 35t9 31q168 -9 232 -9q35 0 66 1t51.5 2t56.5 3t63 3q5 -6 3.5 -27.5t-12.5 -38.5q-30 0 -93.5 -12.5t-77.5 -30.5q-18 -25 -27.5 -56t-22.5 -99l-180 -928q-42 -220 -57 -319q-9 -9 -39 -9q-14 0 -32 14.5t-29 37.5l-684 1256 l-201 -1035q-9 -48 -12.5 -71t-3.5 -45.5t7 -40.5q4 -11 35.5 -22t65.5 -17.5t52 -6.5q4 -14 0.5 -34t-9.5 -32q-25 2 -73 5t-85.5 5t-79.5 2q-43 0 -78 -2t-78 -5t-78 -5q-5 7 -1.5 28zM667 1708q0 41 44 84q78 75 178 75q44 0 74.5 -6t64.5 -26q33 -19 49.5 -27.5 t49 -17.5t65.5 -9q74 0 148 86q14 -4 14 -22q0 -44 -41 -85q-79 -75 -178 -75q-45 0 -75 6.5t-64 25.5t-50.5 27.5t-48.5 18t-65 9.5q-74 0 -149 -87q-16 5 -16 23z" />
<glyph unicode="&#xd2;" horiz-adv-x="1618" d="M139 622q0 129 31 248.5t86 217t131 178.5t165.5 135.5t190 84.5t203.5 30q133 0 243.5 -49.5t185 -136t116 -205t41.5 -254.5q0 -131 -29 -251.5t-82 -218.5t-127.5 -178t-163 -134.5t-191.5 -84t-212 -29.5q-135 0 -247 50.5t-186 138t-114.5 205.5t-40.5 253zM353 611 q0 -59 5.5 -114.5t18.5 -113t33 -107t51.5 -93.5t71.5 -75t95 -49t120 -18q85 0 163 35t140 96t112.5 143.5t84 177.5t52 198t18.5 205q0 50 -5 99.5t-17 105.5t-31 104.5t-50 94t-70.5 77.5t-96 51.5t-122.5 19.5q-86 0 -170 -40.5t-156 -117t-127.5 -177.5t-87.5 -231.5 t-32 -270.5zM645 1815q0 20 31 35t79 15q12 0 34 -4t27 -7q44 -29 143 -115t99 -97q0 -5 -6 -14t-8 -9q-19 0 -115.5 36.5t-190 85t-93.5 74.5z" />
<glyph unicode="&#xd3;" horiz-adv-x="1618" d="M139 622q0 129 31 248.5t86 217t131 178.5t165.5 135.5t190 84.5t203.5 30q133 0 243.5 -49.5t185 -136t116 -205t41.5 -254.5q0 -131 -29 -251.5t-82 -218.5t-127.5 -178t-163 -134.5t-191.5 -84t-212 -29.5q-135 0 -247 50.5t-186 138t-114.5 205.5t-40.5 253zM353 611 q0 -59 5.5 -114.5t18.5 -113t33 -107t51.5 -93.5t71.5 -75t95 -49t120 -18q85 0 163 35t140 96t112.5 143.5t84 177.5t52 198t18.5 205q0 50 -5 99.5t-17 105.5t-31 104.5t-50 94t-70.5 77.5t-96 51.5t-122.5 19.5q-86 0 -170 -40.5t-156 -117t-127.5 -177.5t-87.5 -231.5 t-32 -270.5zM805 1644q0 12 98.5 98t143.5 114q5 3 27 7t34 4q48 0 79 -15t31 -35q0 -26 -93.5 -74.5t-190 -85t-115.5 -36.5q-2 0 -8 9t-6 14z" />
<glyph unicode="&#xd4;" horiz-adv-x="1618" d="M139 622q0 129 31 248.5t86 217t131 178.5t165.5 135.5t190 84.5t203.5 30q133 0 243.5 -49.5t185 -136t116 -205t41.5 -254.5q0 -131 -29 -251.5t-82 -218.5t-127.5 -178t-163 -134.5t-191.5 -84t-212 -29.5q-135 0 -247 50.5t-186 138t-114.5 205.5t-40.5 253zM353 611 q0 -59 5.5 -114.5t18.5 -113t33 -107t51.5 -93.5t71.5 -75t95 -49t120 -18q85 0 163 35t140 96t112.5 143.5t84 177.5t52 198t18.5 205q0 50 -5 99.5t-17 105.5t-31 104.5t-50 94t-70.5 77.5t-96 51.5t-122.5 19.5q-86 0 -170 -40.5t-156 -117t-127.5 -177.5t-87.5 -231.5 t-32 -270.5zM702 1644q160 120 301 246q20 16 32 16q15 0 23 -16q78 -125 178 -246q-1 -7 -7 -12t-13 -8t-14 -3l-203 135q-165 -80 -274 -135q-5 0 -9.5 1.5t-8 4.5t-5 7.5t-0.5 9.5z" />
<glyph unicode="&#xd5;" horiz-adv-x="1618" d="M139 622q0 129 31 248.5t86 217t131 178.5t165.5 135.5t190 84.5t203.5 30q133 0 243.5 -49.5t185 -136t116 -205t41.5 -254.5q0 -131 -29 -251.5t-82 -218.5t-127.5 -178t-163 -134.5t-191.5 -84t-212 -29.5q-135 0 -247 50.5t-186 138t-114.5 205.5t-40.5 253zM353 611 q0 -59 5.5 -114.5t18.5 -113t33 -107t51.5 -93.5t71.5 -75t95 -49t120 -18q85 0 163 35t140 96t112.5 143.5t84 177.5t52 198t18.5 205q0 50 -5 99.5t-17 105.5t-31 104.5t-50 94t-70.5 77.5t-96 51.5t-122.5 19.5q-86 0 -170 -40.5t-156 -117t-127.5 -177.5t-87.5 -231.5 t-32 -270.5zM627 1708q0 41 43 84q79 75 178 75q30 0 50.5 -2t43 -9t45.5 -21q34 -19 50.5 -27.5t48.5 -17.5t65 -9q74 0 149 86q13 -4 13 -22q0 -44 -41 -85q-78 -75 -178 -75q-44 0 -74.5 6.5t-64.5 25.5q-33 19 -49.5 27.5t-49 18t-65.5 9.5q-74 0 -148 -87q-16 5 -16 23 z" />
<glyph unicode="&#xd6;" horiz-adv-x="1618" d="M139 622q0 129 31 248.5t86 217t131 178.5t165.5 135.5t190 84.5t203.5 30q133 0 243.5 -49.5t185 -136t116 -205t41.5 -254.5q0 -131 -29 -251.5t-82 -218.5t-127.5 -178t-163 -134.5t-191.5 -84t-212 -29.5q-135 0 -247 50.5t-186 138t-114.5 205.5t-40.5 253zM353 611 q0 -59 5.5 -114.5t18.5 -113t33 -107t51.5 -93.5t71.5 -75t95 -49t120 -18q85 0 163 35t140 96t112.5 143.5t84 177.5t52 198t18.5 205q0 50 -5 99.5t-17 105.5t-31 104.5t-50 94t-70.5 77.5t-96 51.5t-122.5 19.5q-86 0 -170 -40.5t-156 -117t-127.5 -177.5t-87.5 -231.5 t-32 -270.5zM670 1774q5 23 17 44.5t29 36.5t38.5 24t43.5 9q44 0 68.5 -33t15.5 -81q-4 -24 -16.5 -45t-30 -36t-39.5 -24t-44 -9q-44 0 -67 33t-15 81zM1053 1774q5 23 17 44.5t29 36.5t38.5 24t43.5 9q44 0 68.5 -33t15.5 -81q-8 -48 -45.5 -81t-81.5 -33q-45 0 -69 33 t-16 81z" />
<glyph unicode="&#xd7;" horiz-adv-x="937" d="M32 246l351 308q5 5 5 7q0 3 -5 10.5t-7 9.5l-221 304q0 21 25.5 48t36.5 27q2 0 3 -1t2.5 -4t3.5 -4l237 -322q4 -4 9 -4l5 2l360 321q7 7 13 7q12 0 21 -30.5t9 -62.5l-349 -310q-6 -7 -4 -5q0 -2 2 -4l228 -310q0 -23 -18.5 -50.5t-31.5 -27.5t-16 7l-235 319 q-5 5 -7 5q-4 0 -9 -5l-367 -319q-7 -7 -11 -7q-7 0 -14 15t-11.5 36.5t-4.5 39.5z" />
<glyph unicode="&#xd8;" horiz-adv-x="1618" d="M139 622q0 129 31 248.5t86 217t131 178.5t165.5 135.5t190 84.5t203.5 30q133 0 243.5 -49.5t185 -136t116 -205t41.5 -254.5q0 -131 -29 -251.5t-82 -218.5t-127.5 -178t-163 -134.5t-191.5 -84t-212 -29.5q-135 0 -247 50.5t-186 138t-114.5 205.5t-40.5 253zM219 23 l1176 1498q17 -4 39 -22.5t14 -27.5l-1179 -1501q-17 7 -37.5 25.5t-12.5 27.5zM353 611q0 -59 5.5 -114.5t18.5 -113t33 -107t51.5 -93.5t71.5 -75t95 -49t120 -18q85 0 163 35t140 96t112.5 143.5t84 177.5t52 198t18.5 205q0 50 -5 99.5t-17 105.5t-31 104.5t-50 94 t-70.5 77.5t-96 51.5t-122.5 19.5q-86 0 -170 -40.5t-156 -117t-127.5 -177.5t-87.5 -231.5t-32 -270.5z" />
<glyph unicode="&#xd9;" horiz-adv-x="1507" d="M271 572l130 666q1 5 3 14q24 121 20 155q-2 16 -54.5 26t-84.5 10q-6 8 -1 33t15 33q23 -1 78 -4.5t93 -5t75 -1.5t75.5 1.5t94.5 5t81 4.5q6 -9 0.5 -33t-14.5 -33q-32 0 -88.5 -10t-64.5 -26q-3 -7 -6.5 -15.5t-6 -16t-5.5 -20.5t-5 -20.5t-5.5 -23.5t-4.5 -22.5 t-5 -25.5t-5 -25l-110 -563q-52 -271 12 -401q75 -151 276 -151q48 0 90 7t83.5 24t76.5 43t67.5 65.5t59.5 91t50 120t40 151.5l121 618q9 48 12.5 70.5t3.5 45.5t-7 41q-6 16 -59.5 31t-84.5 15q-4 14 -0.5 33.5t9.5 32.5q25 -2 57.5 -4t54 -3.5t53 -3t63.5 -1.5 q44 0 78.5 2t76.5 5t78 5q5 -7 2.5 -28t-13.5 -38q-30 0 -96.5 -14t-79.5 -32q-18 -25 -28 -56t-22 -99l-121 -616q-33 -169 -90 -291.5t-138 -198.5t-181.5 -112t-226.5 -36q-119 0 -211 42.5t-149 121.5q-112 159 -62 417zM741 1815q0 20 31 35t78 15q13 0 35 -4t27 -7 q44 -29 143 -115t99 -97q0 -5 -6 -14t-8 -9q-19 0 -116 36.5t-190 85t-93 74.5z" />
<glyph unicode="&#xda;" horiz-adv-x="1507" d="M271 572l130 666q1 5 3 14q24 121 20 155q-2 16 -54.5 26t-84.5 10q-6 8 -1 33t15 33q23 -1 78 -4.5t93 -5t75 -1.5t75.5 1.5t94.5 5t81 4.5q6 -9 0.5 -33t-14.5 -33q-32 0 -88.5 -10t-64.5 -26q-3 -7 -6.5 -15.5t-6 -16t-5.5 -20.5t-5 -20.5t-5.5 -23.5t-4.5 -22.5 t-5 -25.5t-5 -25l-110 -563q-52 -271 12 -401q75 -151 276 -151q48 0 90 7t83.5 24t76.5 43t67.5 65.5t59.5 91t50 120t40 151.5l121 618q9 48 12.5 70.5t3.5 45.5t-7 41q-6 16 -59.5 31t-84.5 15q-4 14 -0.5 33.5t9.5 32.5q25 -2 57.5 -4t54 -3.5t53 -3t63.5 -1.5 q44 0 78.5 2t76.5 5t78 5q5 -7 2.5 -28t-13.5 -38q-30 0 -96.5 -14t-79.5 -32q-18 -25 -28 -56t-22 -99l-121 -616q-33 -169 -90 -291.5t-138 -198.5t-181.5 -112t-226.5 -36q-119 0 -211 42.5t-149 121.5q-112 159 -62 417zM971 1644q0 12 99 98t143 114q5 3 27 7t34 4 q48 0 79 -15t31 -35q0 -26 -93.5 -74.5t-190 -85t-115.5 -36.5q-2 0 -8 9t-6 14z" />
<glyph unicode="&#xdb;" horiz-adv-x="1507" d="M271 572l130 666q1 5 3 14q24 121 20 155q-2 16 -54.5 26t-84.5 10q-6 8 -1 33t15 33q23 -1 78 -4.5t93 -5t75 -1.5t75.5 1.5t94.5 5t81 4.5q6 -9 0.5 -33t-14.5 -33q-32 0 -88.5 -10t-64.5 -26q-3 -7 -6.5 -15.5t-6 -16t-5.5 -20.5t-5 -20.5t-5.5 -23.5t-4.5 -22.5 t-5 -25.5t-5 -25l-110 -563q-52 -271 12 -401q75 -151 276 -151q48 0 90 7t83.5 24t76.5 43t67.5 65.5t59.5 91t50 120t40 151.5l121 618q9 48 12.5 70.5t3.5 45.5t-7 41q-6 16 -59.5 31t-84.5 15q-4 14 -0.5 33.5t9.5 32.5q25 -2 57.5 -4t54 -3.5t53 -3t63.5 -1.5 q44 0 78.5 2t76.5 5t78 5q5 -7 2.5 -28t-13.5 -38q-30 0 -96.5 -14t-79.5 -32q-18 -25 -28 -56t-22 -99l-121 -616q-33 -169 -90 -291.5t-138 -198.5t-181.5 -112t-226.5 -36q-119 0 -211 42.5t-149 121.5q-112 159 -62 417zM761 1644q161 120 301 246q20 16 32 16 q15 0 23 -16q78 -125 178 -246q-2 -10 -12.5 -16.5t-21.5 -6.5l-203 135q-165 -80 -274 -135q-5 0 -9.5 1.5t-7.5 4.5t-4.5 7.5t-1.5 9.5z" />
<glyph unicode="&#xdc;" horiz-adv-x="1507" d="M271 572l130 666q1 5 3 14q24 121 20 155q-2 16 -54.5 26t-84.5 10q-6 8 -1 33t15 33q23 -1 78 -4.5t93 -5t75 -1.5t75.5 1.5t94.5 5t81 4.5q6 -9 0.5 -33t-14.5 -33q-32 0 -88.5 -10t-64.5 -26q-3 -7 -6.5 -15.5t-6 -16t-5.5 -20.5t-5 -20.5t-5.5 -23.5t-4.5 -22.5 t-5 -25.5t-5 -25l-110 -563q-52 -271 12 -401q75 -151 276 -151q48 0 90 7t83.5 24t76.5 43t67.5 65.5t59.5 91t50 120t40 151.5l121 618q9 48 12.5 70.5t3.5 45.5t-7 41q-6 16 -59.5 31t-84.5 15q-4 14 -0.5 33.5t9.5 32.5q25 -2 57.5 -4t54 -3.5t53 -3t63.5 -1.5 q44 0 78.5 2t76.5 5t78 5q5 -7 2.5 -28t-13.5 -38q-30 0 -96.5 -14t-79.5 -32q-18 -25 -28 -56t-22 -99l-121 -616q-33 -169 -90 -291.5t-138 -198.5t-181.5 -112t-226.5 -36q-119 0 -211 42.5t-149 121.5q-112 159 -62 417zM766 1774q6 31 25 57.5t46 41.5t57 15 q44 0 68.5 -33t15.5 -81t-47 -81t-83 -33q-44 0 -67.5 33t-14.5 81zM1149 1774q6 31 25 57.5t46 41.5t57 15q44 0 68.5 -33t15.5 -81q-6 -32 -25 -58t-46 -41t-57 -15q-44 0 -68.5 33t-15.5 81z" />
<glyph unicode="&#xdd;" horiz-adv-x="1267" d="M144 1480q6 23 14 29q36 -1 85.5 -4.5t90 -5t86.5 -1.5q57 0 274 11q1 -5 0 -16t-3 -22t-5.5 -19.5t-7.5 -8.5q-14 0 -33.5 -3t-43.5 -10.5t-42 -23t-22 -36.5q-5 -17 11 -68l185 -547q69 97 156.5 225t155.5 231.5t87 138.5q10 16 13 34q1 5 -2 11.5t-13 14.5t-25.5 15 t-42.5 11.5t-60 4.5q-5 6 -1 32.5t10 33.5q24 -1 67.5 -4.5t76.5 -5t68 -1.5q49 0 85.5 1.5t79 5t70.5 4.5q0 -8 -7 -37t-11 -29q-9 0 -17 -0.5t-28 -2.5t-39 -8.5t-40.5 -15.5t-42.5 -26t-36 -38l-468 -664q-8 -11 -12 -22t-7 -29.5t-4 -18.5l-70 -352q-1 -4 -3 -13 q-24 -121 -20 -155q1 -12 31.5 -21t61 -12.5t46.5 -3.5q6 -8 2 -33t-13 -33q-23 1 -78 4.5t-93.5 5.5t-75.5 2t-76 -2t-96.5 -5.5t-80.5 -4.5q-6 9 -0.5 33t14.5 33q17 0 48.5 3.5t65.5 12.5t39 21q3 6 6.5 15t6 16.5t5.5 20t5 20t5.5 23.5t4.5 23t5 26t5 24l66 345 q6 38 -2 64l-189 576q-20 62 -44.5 95.5t-65.5 62.5q-15 11 -37 19.5t-41.5 12.5t-32.5 4q-11 0 -1 37zM769 1644q0 12 99 98t143 114q5 3 27 7t34 4q32 0 57.5 -7t39 -18.5t13.5 -24.5q0 -26 -93 -74.5t-190 -85t-116 -36.5q-2 0 -8 9t-6 14z" />
<glyph unicode="&#xde;" horiz-adv-x="1071" d="M-8.5 26q4.5 24 13.5 33q7 0 19.5 1t29 3t34 5t32.5 7t26 9.5t14 11.5t6.5 15t6 16.5t5.5 20t5 20t5.5 23.5t5 23t5 26t4.5 24l190 974q25 128 20 169q-1 16 -54 26t-85 10q-5 8 -0.5 33t14.5 33q22 -1 78.5 -4.5t94.5 -5t75 -1.5t76 1.5t95 5t80 4.5q6 -9 0.5 -33 t-14.5 -33q-32 0 -88.5 -10t-63.5 -26q-4 -7 -7 -15.5t-5.5 -16t-6 -20.5t-5.5 -20t-5 -23.5t-4.5 -23t-5.5 -25.5t-5 -25l-20 -98q64 25 162 25q182 0 297 -95t115 -249q0 -107 -44 -203.5t-117 -164.5t-170 -107.5t-200 -39.5q-33 0 -63 7t-40 15q-4 5 -11 17t-7 20 q0 4 9 9q19 -9 76 -9q63 0 127.5 31t117.5 84.5t86 135t33 173.5q0 310 -264 310q-14 0 -30 -1.5t-38 -6.5t-38 -17t-19 -30l-151 -780q-1 -4 -3 -13q-24 -121 -20 -155q2 -17 55 -27t84 -10q6 -8 1.5 -33t-14.5 -33q-24 1 -78 4.5t-91.5 5.5t-74.5 2t-76 -2t-96.5 -5.5 t-80.5 -4.5q-7 9 -2.5 33z" />
<glyph unicode="&#xdf;" horiz-adv-x="1140" d="M-285 -474q0 25 2 39q6 38 22.5 63t43.5 25q14 0 26 -3.5t23.5 -12.5t18.5 -15.5t19 -20.5q11 -11 17.5 -16.5t20 -11.5t28.5 -6q64 0 106.5 115.5t98.5 406.5l137 768h-194q-4 0 -4 7q0 20 34.5 49t70.5 29h107q26 136 78.5 253.5t116.5 197t136.5 124.5t140.5 45 q36 0 72.5 -9.5t71.5 -30t62 -49.5t44 -73t17 -96q0 -48 -11 -90.5t-25.5 -71t-39 -57.5t-42 -44.5t-44 -37.5t-37.5 -32q-4 -4 -12 -11q-29 -27 -43.5 -41.5t-34.5 -37t-28.5 -41.5t-8.5 -37q0 -22 13 -48t25.5 -42t42.5 -49t39 -44q13 -14 45 -49.5t46.5 -52.5t38 -50 t34 -57.5t19.5 -60t9 -72.5q0 -124 -89.5 -205.5t-225.5 -81.5q-48 0 -87.5 7.5t-66.5 22t-42.5 26t-31.5 26.5q-15 46 -13 59q3 46 28 70t63 24q15 0 29.5 -12.5t26 -31t26.5 -40t30 -40t37.5 -31t48.5 -12.5q64 0 93.5 40.5t29.5 101.5q0 28 -13.5 63t-28 61t-44.5 65 t-42.5 53.5t-42.5 48.5q-29 34 -39.5 46t-32.5 42t-30.5 49.5t-16.5 49t-8 60.5q0 25 5 46t12.5 36.5t26 36t33.5 35t46.5 45t56.5 54.5q37 37 60.5 68.5t42 81t18.5 105.5q0 99 -58 158t-134 59q-72 0 -119.5 -119t-99.5 -403q-21 -112 -72.5 -396t-82.5 -448 q-27 -136 -79 -255t-116 -200t-136.5 -127.5t-140.5 -46.5q-46 0 -78 16t-45 41z" />
<glyph unicode="&#xe0;" horiz-adv-x="1023" d="M43 258q0 96 29 191.5t78.5 175t115 148.5t137.5 117t148 75t144 27q98 0 178 -30l-139 -720q-2 -7 -3.5 -16t-3.5 -22t-3 -25t0 -24.5t3 -22t7.5 -15t13.5 -5.5q11 0 28 9.5t33 23t34 31t30.5 31t23 25.5l10.5 12q6 0 14.5 -16.5t8.5 -26.5q-10 -18 -42.5 -52t-75 -71 t-93 -64.5t-87.5 -27.5q-36 0 -57 33.5t-21 85.5q0 37 16 121q9 54 11 70q-15 -28 -39 -63.5t-60 -79.5t-73.5 -80t-81 -60t-81.5 -24q-92 0 -147.5 74t-55.5 195zM212 344q0 -223 116 -223q55 0 123 80t121.5 197.5t75.5 226.5l47 241q-14 16 -46.5 25.5t-57.5 9.5 q-65 0 -133.5 -50.5t-122 -129t-88.5 -180t-35 -197.5zM385 1375q0 24 17 40.5t36 22t36 5.5q52 0 85 -23q23 -16 119.5 -128t96.5 -125q0 -5 -6.5 -13.5t-11.5 -8.5q-18 0 -109 48t-177 105t-86 77z" />
<glyph unicode="&#xe1;" horiz-adv-x="1023" d="M43 258q0 96 29 191.5t78.5 175t115 148.5t137.5 117t148 75t144 27q98 0 178 -30l-139 -720q-2 -7 -3.5 -16t-3.5 -22t-3 -25t0 -24.5t3 -22t7.5 -15t13.5 -5.5q11 0 28 9.5t33 23t34 31t30.5 31t23 25.5l10.5 12q6 0 14.5 -16.5t8.5 -26.5q-10 -18 -42.5 -52t-75 -71 t-93 -64.5t-87.5 -27.5q-36 0 -57 33.5t-21 85.5q0 37 16 121q9 54 11 70q-15 -28 -39 -63.5t-60 -79.5t-73.5 -80t-81 -60t-81.5 -24q-92 0 -147.5 74t-55.5 195zM212 344q0 -223 116 -223q55 0 123 80t121.5 197.5t75.5 226.5l47 241q-14 16 -46.5 25.5t-57.5 9.5 q-65 0 -133.5 -50.5t-122 -129t-88.5 -180t-35 -197.5zM552 1167q0 13 96.5 125t119.5 128q33 23 85 23q17 0 36 -5.5t36 -22t17 -40.5q0 -20 -86 -77t-177.5 -105t-108.5 -48q-5 0 -11.5 8.5t-6.5 13.5z" />
<glyph unicode="&#xe2;" horiz-adv-x="1023" d="M43 258q0 96 29 191.5t78.5 175t115 148.5t137.5 117t148 75t144 27q98 0 178 -30l-139 -720q-2 -7 -3.5 -16t-3.5 -22t-3 -25t0 -24.5t3 -22t7.5 -15t13.5 -5.5q11 0 28 9.5t33 23t34 31t30.5 31t23 25.5l10.5 12q6 0 14.5 -16.5t8.5 -26.5q-10 -18 -42.5 -52t-75 -71 t-93 -64.5t-87.5 -27.5q-36 0 -57 33.5t-21 85.5q0 37 16 121q9 54 11 70q-15 -28 -39 -63.5t-60 -79.5t-73.5 -80t-81 -60t-81.5 -24q-92 0 -147.5 74t-55.5 195zM212 344q0 -223 116 -223q55 0 123 80t121.5 197.5t75.5 226.5l47 241q-14 16 -46.5 25.5t-57.5 9.5 q-65 0 -133.5 -50.5t-122 -129t-88.5 -180t-35 -197.5zM383 1151q163 156 265 265q18 18 27 18q11 0 20 -18q73 -137 155 -265q-1 -9 -10.5 -17t-18.5 -8q-20 16 -45.5 36.5t-48 39t-42 35t-31.5 26.5l-11 9q-151 -89 -239 -146q-9 0 -16 7.5t-5 17.5z" />
<glyph unicode="&#xe3;" horiz-adv-x="1023" d="M43 258q0 96 29 191.5t78.5 175t115 148.5t137.5 117t148 75t144 27q98 0 178 -30l-139 -720q-2 -7 -3.5 -16t-3.5 -22t-3 -25t0 -24.5t3 -22t7.5 -15t13.5 -5.5q11 0 28 9.5t33 23t34 31t30.5 31t23 25.5l10.5 12q6 0 14.5 -16.5t8.5 -26.5q-10 -18 -42.5 -52t-75 -71 t-93 -64.5t-87.5 -27.5q-36 0 -57 33.5t-21 85.5q0 37 16 121q9 54 11 70q-15 -28 -39 -63.5t-60 -79.5t-73.5 -80t-81 -60t-81.5 -24q-92 0 -147.5 74t-55.5 195zM212 344q0 -223 116 -223q55 0 123 80t121.5 197.5t75.5 226.5l47 241q-14 16 -46.5 25.5t-57.5 9.5 q-65 0 -133.5 -50.5t-122 -129t-88.5 -180t-35 -197.5zM292 1176q7 48 45 83q79 73 181 73q68 0 127 -30q12 -5 33 -16.5t34.5 -18t35.5 -12.5t45 -6q11 0 22 2t20.5 5t19.5 8t17.5 9.5t16.5 11t14.5 11t13 11.5t10.5 10l8.5 8.5l6.5 6.5q5 -2 7 -3t4.5 -6t1.5 -12 q-3 -23 -17 -46.5t-31 -37.5q-79 -73 -177 -73q-58 0 -126 32l-31 15.5t-38.5 18t-35.5 10.5t-48 6q-10 0 -21 -2t-20.5 -5t-19.5 -8t-17.5 -9.5t-16.5 -11t-14.5 -11t-13 -11.5t-10.5 -10l-8.5 -8.5t-6.5 -5.5q-14 4 -11 22z" />
<glyph unicode="&#xe4;" horiz-adv-x="1023" d="M43 258q0 96 29 191.5t78.5 175t115 148.5t137.5 117t148 75t144 27q98 0 178 -30l-139 -720q-2 -7 -3.5 -16t-3.5 -22t-3 -25t0 -24.5t3 -22t7.5 -15t13.5 -5.5q11 0 28 9.5t33 23t34 31t30.5 31t23 25.5l10.5 12q6 0 14.5 -16.5t8.5 -26.5q-10 -18 -42.5 -52t-75 -71 t-93 -64.5t-87.5 -27.5q-36 0 -57 33.5t-21 85.5q0 37 16 121q9 54 11 70q-15 -28 -39 -63.5t-60 -79.5t-73.5 -80t-81 -60t-81.5 -24q-92 0 -147.5 74t-55.5 195zM212 344q0 -223 116 -223q55 0 123 80t121.5 197.5t75.5 226.5l47 241q-14 16 -46.5 25.5t-57.5 9.5 q-65 0 -133.5 -50.5t-122 -129t-88.5 -180t-35 -197.5zM337.5 1270q8.5 42 45 73.5t75.5 31.5q40 0 63 -32.5t15 -74.5q-6 -28 -24 -52t-43.5 -37.5t-51.5 -13.5q-39 0 -63.5 31.5t-16 73.5zM725 1270q8 42 45.5 73.5t77.5 31.5q39 0 61.5 -32t13.5 -75q-8 -43 -43 -73 t-75 -30t-64 31.5t-16 73.5z" />
<glyph unicode="&#xe5;" horiz-adv-x="1023" d="M43 258q0 96 29 191.5t78.5 175t115 148.5t137.5 117t148 75t144 27q98 0 178 -30l-139 -720q-2 -7 -3.5 -16t-3.5 -22t-3 -25t0 -24.5t3 -22t7.5 -15t13.5 -5.5q11 0 28 9.5t33 23t34 31t30.5 31t23 25.5l10.5 12q6 0 14.5 -16.5t8.5 -26.5q-10 -18 -42.5 -52t-75 -71 t-93 -64.5t-87.5 -27.5q-36 0 -57 33.5t-21 85.5q0 37 16 121q9 54 11 70q-15 -28 -39 -63.5t-60 -79.5t-73.5 -80t-81 -60t-81.5 -24q-92 0 -147.5 74t-55.5 195zM212 344q0 -223 116 -223q55 0 123 80t121.5 197.5t75.5 226.5l47 241q-14 16 -46.5 25.5t-57.5 9.5 q-65 0 -133.5 -50.5t-122 -129t-88.5 -180t-35 -197.5zM502 1336q8 41 30.5 78.5t53 65t68.5 43.5t76 16q76 0 118 -59.5t25 -143.5t-82 -144.5t-141 -60.5q-77 0 -121 60.5t-27 144.5zM572 1336q-10 -53 17 -90.5t74 -37.5q32 0 62 17t51.5 46.5t28.5 64.5q10 53 -16.5 89 t-75 36t-90 -36t-51.5 -89z" />
<glyph unicode="&#xe6;" horiz-adv-x="1274" d="M14 182q0 71 42 133t92 95q15 11 88.5 34.5t171 52.5t121.5 37q5 1 7.5 3.5t4.5 8t3 10.5t2.5 14t2.5 16l26 137q4 18 4 48q0 47 -35.5 90.5t-92.5 43.5q-48 0 -77 -32t-53 -100q-38 -103 -116 -103q-52 0 -52 66q0 36 25 76q29 24 70 52t95 58.5t115.5 50t113.5 19.5 q67 0 112 -47t52 -111q59 68 151 113t180 45q44 0 75.5 -13t46.5 -29.5t23 -41t9 -36.5t1 -28q0 -58 -39.5 -115.5t-100.5 -102.5t-134 -82.5t-141 -60t-121 -29.5q-9 -55 -9 -94q0 -111 40 -175t120 -64q17 0 37 6.5t38 16.5t38 24t35.5 28t31.5 28.5t25.5 25t18 19.5 l8.5 9q6 0 16 -16t12 -29q-68 -97 -167.5 -172t-181.5 -75q-75 0 -144.5 47.5t-92.5 126.5q-31 -40 -146.5 -109t-159.5 -69q-37 0 -70.5 11.5t-61 35t-43.5 63t-16 90.5zM187 230q0 -54 29 -89.5t74 -35.5q33 0 83 31.5t85.5 65t36.5 44.5l34 212q-150 -30 -223 -70 q-119 -61 -119 -158zM698 524q27 0 70.5 13t93 38.5t92.5 58.5t71 79t28 94q0 41 -28.5 66t-64.5 25q-52 0 -98.5 -35t-79.5 -90.5t-54.5 -120t-29.5 -128.5z" />
<glyph unicode="&#xe7;" horiz-adv-x="818" d="M55 319q0 76 19 152t53 141.5t79 124.5t97.5 105t107.5 80t110.5 52t105.5 18q34 0 63.5 -10.5t43.5 -20t34 -26.5q4 -5 8.5 -14t8.5 -22.5t4 -25.5q0 -42 -20 -72t-58 -30q-24 0 -47 12.5t-35 32.5q-9 15 -15 23.5t-17.5 21t-22.5 19.5t-27.5 12.5t-35.5 5.5 q-47 0 -96.5 -40.5t-90 -108.5t-66 -168.5t-25.5 -211.5q0 -24 1.5 -46.5t6.5 -53t16.5 -55t28 -46.5t43 -34.5t61.5 -12.5q16 0 34.5 5t35.5 14t34.5 20t33.5 24t30 25.5t26 25t20 21t14 15.5t7 7q5 0 16 -18t11 -27q-9 -15 -31.5 -42.5t-59.5 -63t-77 -67t-88 -53 t-88 -21.5q-121 0 -187 87t-66 246zM111 -299.5q-1 14.5 1 16.5q1 8 6.5 15.5t13 12t14.5 4.5q11 0 33 -14.5t40 -14.5q43 0 72.5 22t34.5 53q8 37 -9 57t-41 20q-19 0 -59 -16q-5 0 -13 12t-3 18q10 14 28 36.5t35.5 44.5t27.5 35h43l-48 -52h53q40 0 60.5 -33t12.5 -79 q-15 -78 -81.5 -125.5t-151.5 -47.5q-18 0 -38.5 6.5t-29.5 13.5q0 1 -1 15.5z" />
<glyph unicode="&#xe8;" horiz-adv-x="827" d="M52 317q0 82 24.5 167t66 158.5t98 138.5t119 111t131.5 73t134 27q41 0 71.5 -12.5t47 -33.5t24 -44.5t7.5 -51.5q0 -52 -30 -106t-78.5 -97.5t-108.5 -83t-120 -66t-114 -42t-89 -15.5q-5 -14 -5 -73q0 -112 38 -179t120 -67q18 0 39 6.5t39.5 17t38.5 24.5t36 28 t31.5 28.5t25 25t17 19l7.5 8.5q6 0 17 -18t11 -27q-13 -23 -47.5 -61t-82.5 -81t-107.5 -74t-109.5 -31q-121 0 -186 86t-65 245zM239 497q28 0 72.5 15.5t95.5 45.5t96 67t74 85.5t29 96.5q0 43 -29.5 67t-65.5 24q-45 0 -87.5 -30.5t-73.5 -77t-55.5 -102t-38 -105 t-17.5 -86.5zM310 1375q0 24 17 40.5t35.5 22t36.5 5.5q52 0 84 -23q24 -16 120.5 -128t96.5 -125q0 -5 -6.5 -13.5t-11.5 -8.5q-18 0 -109 48t-177 105t-86 77z" />
<glyph unicode="&#xe9;" horiz-adv-x="827" d="M52 317q0 82 24.5 167t66 158.5t98 138.5t119 111t131.5 73t134 27q41 0 71.5 -12.5t47 -33.5t24 -44.5t7.5 -51.5q0 -52 -30 -106t-78.5 -97.5t-108.5 -83t-120 -66t-114 -42t-89 -15.5q-5 -14 -5 -73q0 -112 38 -179t120 -67q18 0 39 6.5t39.5 17t38.5 24.5t36 28 t31.5 28.5t25 25t17 19l7.5 8.5q6 0 17 -18t11 -27q-13 -23 -47.5 -61t-82.5 -81t-107.5 -74t-109.5 -31q-121 0 -186 86t-65 245zM239 497q28 0 72.5 15.5t95.5 45.5t96 67t74 85.5t29 96.5q0 43 -29.5 67t-65.5 24q-45 0 -87.5 -30.5t-73.5 -77t-55.5 -102t-38 -105 t-17.5 -86.5zM495 1167q0 13 96.5 125t119.5 128q33 23 85 23q17 0 36 -5.5t36 -22t17 -40.5q0 -20 -86 -77t-177.5 -105t-108.5 -48q-5 0 -11.5 8.5t-6.5 13.5z" />
<glyph unicode="&#xea;" horiz-adv-x="827" d="M52 317q0 82 24.5 167t66 158.5t98 138.5t119 111t131.5 73t134 27q41 0 71.5 -12.5t47 -33.5t24 -44.5t7.5 -51.5q0 -52 -30 -106t-78.5 -97.5t-108.5 -83t-120 -66t-114 -42t-89 -15.5q-5 -14 -5 -73q0 -112 38 -179t120 -67q18 0 39 6.5t39.5 17t38.5 24.5t36 28 t31.5 28.5t25 25t17 19l7.5 8.5q6 0 17 -18t11 -27q-13 -23 -47.5 -61t-82.5 -81t-107.5 -74t-109.5 -31q-121 0 -186 86t-65 245zM239 497q28 0 72.5 15.5t95.5 45.5t96 67t74 85.5t29 96.5q0 43 -29.5 67t-65.5 24q-45 0 -87.5 -30.5t-73.5 -77t-55.5 -102t-38 -105 t-17.5 -86.5zM326 1151q163 156 265 265q18 18 27 18q11 0 20 -18q73 -137 155 -265q-1 -9 -10.5 -17t-18.5 -8q-32 25 -76.5 61.5t-72.5 60.5l-29 24q-151 -89 -239 -146q-9 0 -16 7.5t-5 17.5z" />
<glyph unicode="&#xeb;" horiz-adv-x="827" d="M52 317q0 82 24.5 167t66 158.5t98 138.5t119 111t131.5 73t134 27q41 0 71.5 -12.5t47 -33.5t24 -44.5t7.5 -51.5q0 -52 -30 -106t-78.5 -97.5t-108.5 -83t-120 -66t-114 -42t-89 -15.5q-5 -14 -5 -73q0 -112 38 -179t120 -67q18 0 39 6.5t39.5 17t38.5 24.5t36 28 t31.5 28.5t25 25t17 19l7.5 8.5q6 0 17 -18t11 -27q-13 -23 -47.5 -61t-82.5 -81t-107.5 -74t-109.5 -31q-121 0 -186 86t-65 245zM239 497q28 0 72.5 15.5t95.5 45.5t96 67t74 85.5t29 96.5q0 43 -29.5 67t-65.5 24q-45 0 -87.5 -30.5t-73.5 -77t-55.5 -102t-38 -105 t-17.5 -86.5zM257.5 1270q5.5 28 24.5 52t45 38.5t51 14.5q40 0 63.5 -32.5t14.5 -74.5q-8 -43 -43.5 -73t-75.5 -30q-25 0 -45.5 14t-30 38.5t-4 52.5zM645.5 1270q8.5 42 46 73.5t76.5 31.5q40 0 62 -32t14 -75q-5 -21 -16.5 -40t-27.5 -33t-36 -22t-39 -8q-40 0 -64 31.5 t-15.5 73.5z" />
<glyph unicode="&#xec;" horiz-adv-x="597" d="M64 777q11 19 41 52.5t71 71t89.5 64.5t85.5 27q18 0 34 -9t28.5 -24.5t19.5 -38t7 -47.5q0 -37 -16 -121l-116 -510q-9 -46 -9 -73q0 -57 22 -57q12 0 28.5 9.5t33 23t34.5 31t30.5 31t23 25.5l10.5 12q3 0 8.5 -8t10 -18.5t4.5 -16.5q-11 -18 -43 -52t-75 -71 t-93 -64.5t-88 -27.5q-35 0 -56 33.5t-21 85.5q0 37 16 121l116 510q9 55 9 73q0 57 -23 57q-10 0 -23.5 -6.5t-28 -18t-29 -25t-28.5 -27.5t-24 -25.5t-18 -20t-8 -9.5q-6 0 -14.5 16.5t-8.5 26.5zM66 1300q0 24 17 40.5t35.5 22t36.5 5.5q52 0 84 -23q15 -10 68 -68.5 t101 -117t48 -67.5q0 -5 -6.5 -14t-11.5 -9q-18 0 -109 48.5t-177 105.5t-86 77z" />
<glyph unicode="&#xed;" horiz-adv-x="597" d="M64 777q11 19 41 52.5t71 71t89.5 64.5t85.5 27q18 0 34 -9t28.5 -24.5t19.5 -38t7 -47.5q0 -37 -16 -121l-116 -510q-9 -46 -9 -73q0 -57 22 -57q12 0 28.5 9.5t33 23t34.5 31t30.5 31t23 25.5l10.5 12q3 0 8.5 -8t10 -18.5t4.5 -16.5q-11 -18 -43 -52t-75 -71 t-93 -64.5t-88 -27.5q-35 0 -56 33.5t-21 85.5q0 37 16 121l116 510q9 55 9 73q0 57 -23 57q-10 0 -23.5 -6.5t-28 -18t-29 -25t-28.5 -27.5t-24 -25.5t-18 -20t-8 -9.5q-6 0 -14.5 16.5t-8.5 26.5zM223 1167q0 13 97 125t120 128q33 23 84 23q18 0 37 -5.5t35.5 -22 t16.5 -40.5q0 -20 -85.5 -77t-177 -105t-108.5 -48q-5 0 -12 8.5t-7 13.5z" />
<glyph unicode="&#xee;" horiz-adv-x="597" d="M64 777q11 19 41 52.5t71 71t89.5 64.5t85.5 27q18 0 34 -9t28.5 -24.5t19.5 -38t7 -47.5q0 -37 -16 -121l-116 -510q-9 -46 -9 -73q0 -57 22 -57q12 0 28.5 9.5t33 23t34.5 31t30.5 31t23 25.5l10.5 12q3 0 8.5 -8t10 -18.5t4.5 -16.5q-11 -18 -43 -52t-75 -71 t-93 -64.5t-88 -27.5q-35 0 -56 33.5t-21 85.5q0 37 16 121l116 510q9 55 9 73q0 57 -23 57q-10 0 -23.5 -6.5t-28 -18t-29 -25t-28.5 -27.5t-24 -25.5t-18 -20t-8 -9.5q-6 0 -14.5 16.5t-8.5 26.5zM119 1151q162 156 264 265q18 18 27 18q12 0 21 -18q73 -137 155 -265 q-2 -9 -11.5 -17t-18.5 -8q-19 16 -45 36.5t-48 39t-42 35t-31 26.5l-12 9q-150 -89 -239 -146q-9 0 -15.5 7.5t-4.5 17.5z" />
<glyph unicode="&#xef;" horiz-adv-x="597" d="M64 777q11 19 41 52.5t71 71t89.5 64.5t85.5 27q18 0 34 -9t28.5 -24.5t19.5 -38t7 -47.5q0 -37 -16 -121l-116 -510q-9 -46 -9 -73q0 -57 22 -57q12 0 28.5 9.5t33 23t34.5 31t30.5 31t23 25.5l10.5 12q3 0 8.5 -8t10 -18.5t4.5 -16.5q-11 -18 -43 -52t-75 -71 t-93 -64.5t-88 -27.5q-35 0 -56 33.5t-21 85.5q0 37 16 121l116 510q9 55 9 73q0 57 -23 57q-10 0 -23.5 -6.5t-28 -18t-29 -25t-28.5 -27.5t-24 -25.5t-18 -20t-8 -9.5q-6 0 -14.5 16.5t-8.5 26.5zM146 1256q0 53 33 90.5t83 37.5q36 0 60.5 -27.5t24.5 -63.5 q0 -55 -36 -96t-88 -41q-35 0 -56 30t-21 70zM449 1256q0 53 33 90.5t83 37.5q36 0 60.5 -27.5t24.5 -63.5q0 -55 -36 -96t-87 -41q-24 0 -42.5 15t-27 37t-8.5 48z" />
<glyph unicode="&#xf0;" horiz-adv-x="996" d="M89 319q0 63 17.5 137t48 149t77 144.5t100 123.5t121.5 86.5t138 32.5q87 0 123 -21q1 77 -29 172t-88 177l-241 -159q-12 9 -20.5 34.5t-0.5 37.5l219 144q-105 120 -246 155q2 14 10 25.5t19 11.5q172 -30 297 -137l262 173q11 -10 19.5 -36t3.5 -35l-233 -155 q97 -108 148 -259t51 -315q0 -145 -31 -276t-84 -228t-121 -168.5t-145.5 -107.5t-154.5 -36q-59 0 -105 19.5t-74.5 51.5t-47 76t-26 89t-7.5 94zM267 360q0 -36 2.5 -71.5t11 -78t22.5 -74t38.5 -53t57.5 -21.5q54 0 107.5 44t95.5 117.5t67.5 179t25.5 219.5 q0 138 -6 183q-7 46 -42 80t-75 34q-55 0 -110 -45t-98 -119.5t-70 -179t-27 -215.5z" />
<glyph unicode="&#xf1;" horiz-adv-x="1133" d="M50 777q11 19 41.5 52.5t71 71t89 64.5t85.5 27q18 0 34.5 -9t28.5 -24.5t19 -38t7 -47.5q0 -44 -18 -121l-41 -191q7 13 26 41.5t49 68.5t65 83.5t76 86t80.5 76t79.5 54.5t71 21q51 0 83 -18.5t45 -51t13 -81.5q0 -93 -32 -248l-75 -351q-9 -46 -9 -73q0 -57 23 -57 q11 0 28 9.5t33 23t34 31t30.5 31t23 25.5l10.5 12q6 0 14.5 -16.5t8.5 -26.5q-10 -18 -42.5 -52t-75 -71t-93 -64.5t-87.5 -27.5q-36 0 -57 33.5t-21 85.5q0 37 16 121l80 376q4 18 10 62t6 61q0 26 -1 41t-5 29.5t-13.5 21t-24.5 6.5q-25 0 -70 -28.5t-99 -81.5 t-104.5 -119t-91.5 -150.5t-56 -165.5q-9 -46 -57 -278q-37 -9 -82 -9q-44 0 -80 9l150 736q9 55 9 73q0 57 -22 57q-12 0 -28.5 -9.5t-33 -23t-34.5 -31t-30.5 -31t-23 -25t-10.5 -12.5q-5 0 -14 16.5t-9 26.5zM296 1176q7 48 46 83q79 73 180 73q69 0 128 -30 q11 -5 32 -16.5t35 -18t36 -12.5t45 -6q11 0 21.5 2t20 5t19.5 8t18 9.5t17 11t14.5 11t13 11.5t10.5 10l8.5 8.5t5.5 6.5l7.5 -3t5 -6t1.5 -12q-3 -23 -17 -46.5t-31 -37.5q-79 -73 -178 -73q-57 0 -125 32l-31 15.5t-38.5 18t-36 10.5t-47.5 6q-11 0 -21.5 -2t-20 -5 t-19.5 -8t-18 -9.5t-17 -11t-14.5 -11t-13 -11.5t-10.5 -10l-8.5 -8.5l-5.5 -5.5q-14 4 -12 22z" />
<glyph unicode="&#xf2;" horiz-adv-x="943" d="M55 315q0 94 28 192.5t78.5 184t115 153.5t142 107.5t153.5 39.5q132 0 199.5 -91t67.5 -244q0 -94 -28.5 -192t-79.5 -182t-115.5 -151t-142 -105t-154.5 -38q-132 0 -198 86.5t-66 239.5zM233 360q0 -138 34 -218t96 -80q54 0 103 36t84 95.5t60.5 133t38 150 t12.5 145.5q0 141 -30 219t-91 78q-55 0 -105 -36t-86 -95t-63 -132.5t-40 -150t-13 -145.5zM324 1300q0 24 16.5 40.5t35.5 22t37 5.5q51 0 84 -23q23 -16 120 -128t97 -125q0 -5 -7 -14t-12 -9q-12 0 -72 30t-126.5 69t-119.5 77.5t-53 54.5z" />
<glyph unicode="&#xf3;" horiz-adv-x="943" d="M55 315q0 94 28 192.5t78.5 184t115 153.5t142 107.5t153.5 39.5q132 0 199.5 -91t67.5 -244q0 -94 -28.5 -192t-79.5 -182t-115.5 -151t-142 -105t-154.5 -38q-132 0 -198 86.5t-66 239.5zM233 360q0 -138 34 -218t96 -80q54 0 103 36t84 95.5t60.5 133t38 150 t12.5 145.5q0 141 -30 219t-91 78q-55 0 -105 -36t-86 -95t-63 -132.5t-40 -150t-13 -145.5zM458 1167q0 13 96.5 125t120.5 128q32 23 84 23q18 0 37 -5.5t35.5 -22t16.5 -40.5q0 -12 -35 -40.5t-86 -60t-104.5 -61t-94.5 -49t-51 -19.5q-5 0 -12 8.5t-7 13.5z" />
<glyph unicode="&#xf4;" horiz-adv-x="943" d="M55 315q0 94 28 192.5t78.5 184t115 153.5t142 107.5t153.5 39.5q132 0 199.5 -91t67.5 -244q0 -94 -28.5 -192t-79.5 -182t-115.5 -151t-142 -105t-154.5 -38q-132 0 -198 86.5t-66 239.5zM233 360q0 -138 34 -218t96 -80q54 0 103 36t84 95.5t60.5 133t38 150 t12.5 145.5q0 141 -30 219t-91 78q-55 0 -105 -36t-86 -95t-63 -132.5t-40 -150t-13 -145.5zM335 1151q163 156 265 265q18 18 27 18q11 0 21 -18q72 -137 155 -265q-2 -9 -11.5 -17t-18.5 -8q-31 25 -75.5 61.5t-73.5 60.5l-29 24q-151 -89 -239 -146q-9 0 -15.5 7.5 t-5.5 17.5z" />
<glyph unicode="&#xf5;" horiz-adv-x="943" d="M55 315q0 94 28 192.5t78.5 184t115 153.5t142 107.5t153.5 39.5q132 0 199.5 -91t67.5 -244q0 -94 -28.5 -192t-79.5 -182t-115.5 -151t-142 -105t-154.5 -38q-132 0 -198 86.5t-66 239.5zM233 360q0 -138 34 -218t96 -80q54 0 103 36t84 95.5t60.5 133t38 150 t12.5 145.5q0 141 -30 219t-91 78q-55 0 -105 -36t-86 -95t-63 -132.5t-40 -150t-13 -145.5zM260 1176q7 48 46 83q79 73 180 73q68 0 127 -30q9 -4 40.5 -21t55 -24.5t53.5 -7.5q10 0 21 2t20.5 5t19.5 8t17.5 9.5t16.5 11t14.5 11t13 11.5t10.5 10l8.5 8.5l6.5 6.5l7.5 -3 t4.5 -6t1 -12q-2 -15 -9.5 -31.5t-17.5 -30t-20 -22.5q-80 -73 -178 -73q-58 0 -126 32l-31 15.5t-38.5 18t-35.5 10.5t-47 6q-11 0 -22 -2t-20.5 -5t-19.5 -8t-17.5 -9.5t-16.5 -11t-14.5 -11t-13 -11.5t-10.5 -10l-8.5 -8.5t-6.5 -5.5q-14 4 -11 22z" />
<glyph unicode="&#xf6;" horiz-adv-x="943" d="M55 315q0 94 28 192.5t78.5 184t115 153.5t142 107.5t153.5 39.5q132 0 199.5 -91t67.5 -244q0 -94 -28.5 -192t-79.5 -182t-115.5 -151t-142 -105t-154.5 -38q-132 0 -198 86.5t-66 239.5zM233 360q0 -138 34 -218t96 -80q54 0 103 36t84 95.5t60.5 133t38 150 t12.5 145.5q0 141 -30 219t-91 78q-55 0 -105 -36t-86 -95t-63 -132.5t-40 -150t-13 -145.5zM312.5 1270q8.5 42 45 73.5t75.5 31.5q40 0 63 -32.5t15 -74.5q-6 -28 -24 -52t-43.5 -37.5t-51.5 -13.5q-40 0 -64 31.5t-15.5 73.5zM699.5 1270q8.5 42 46 73.5t77.5 31.5 q39 0 61.5 -32t13.5 -75q-8 -43 -43.5 -73t-75 -30t-64 31.5t-16 73.5z" />
<glyph unicode="&#xf7;" horiz-adv-x="1155" d="M75 534q0 18 7 44t16 40h960q7 0 7 -18q0 -44 -28 -89h-953q-9 0 -9 23zM385 109q0 26 9 49.5t24 40.5t37 27.5t47 10.5q35 0 58.5 -27t23.5 -64q0 -55 -35 -96t-86 -41q-24 0 -42 15t-27 37.5t-9 47.5zM554 990q0 34 14.5 63t41.5 46.5t60 17.5q36 0 60.5 -27t24.5 -64 q0 -54 -36 -95.5t-87 -41.5q-36 0 -57 30t-21 71z" />
<glyph unicode="&#xf8;" horiz-adv-x="943" d="M55 315q0 94 28 192.5t78.5 184t115 153.5t142 107.5t153.5 39.5q132 0 199.5 -91t67.5 -244q0 -94 -28.5 -192t-79.5 -182t-115.5 -151t-142 -105t-154.5 -38q-132 0 -198 86.5t-66 239.5zM75 46l702 909q18 -8 34 -21t10 -22l-702 -912q-16 8 -33 22.5t-11 23.5z M233 360q0 -138 34 -218t96 -80q54 0 103 36t84 95.5t60.5 133t38 150t12.5 145.5q0 141 -30 219t-91 78q-55 0 -105 -36t-86 -95t-63 -132.5t-40 -150t-13 -145.5z" />
<glyph unicode="&#xf9;" horiz-adv-x="1119" d="M46 777q10 19 40.5 52.5t71 71t89 64.5t86.5 27q18 0 34 -9t28 -24.5t19.5 -38t7.5 -47.5q0 -37 -16 -121l-80 -376q-4 -18 -10 -62t-6 -61q0 -22 1.5 -37.5t5.5 -30.5t13 -22.5t23 -7.5q25 0 69 31.5t95.5 88.5t100.5 127t88.5 157t55.5 168q7 41 23.5 120t26.5 131 q30 9 70 9q53 0 89 -9l-141 -736q-9 -46 -9 -73q0 -57 23 -57q11 0 27.5 9.5t33 23t34.5 31t30.5 31t23 25.5l10.5 12q5 0 14 -16.5t9 -26.5q-10 -18 -42.5 -52t-75.5 -71t-93 -64.5t-88 -27.5q-35 0 -56 33.5t-21 85.5q0 37 16 121q6 34 12.5 65t14.5 68t14 65 q-23 -50 -76 -122.5t-118 -143.5t-138 -121.5t-126 -50.5q-114 0 -114 164q0 81 31 235l76 351q9 55 9 73q0 57 -23 57q-11 0 -28 -9.5t-33 -23t-34 -31t-30.5 -31t-23 -25t-11.5 -12.5q-5 0 -13.5 16.5t-8.5 26.5zM353 1300q0 24 17 40.5t36 22t36 5.5q52 0 85 -23 q23 -16 119.5 -128t96.5 -125q0 -5 -6.5 -14t-11.5 -9q-17 0 -108.5 48.5t-177.5 105.5t-86 77z" />
<glyph unicode="&#xfa;" horiz-adv-x="1119" d="M46 777q10 19 40.5 52.5t71 71t89 64.5t86.5 27q18 0 34 -9t28 -24.5t19.5 -38t7.5 -47.5q0 -37 -16 -121l-80 -376q-4 -18 -10 -62t-6 -61q0 -22 1.5 -37.5t5.5 -30.5t13 -22.5t23 -7.5q25 0 69 31.5t95.5 88.5t100.5 127t88.5 157t55.5 168q7 41 23.5 120t26.5 131 q30 9 70 9q53 0 89 -9l-141 -736q-9 -46 -9 -73q0 -57 23 -57q11 0 27.5 9.5t33 23t34.5 31t30.5 31t23 25.5l10.5 12q5 0 14 -16.5t9 -26.5q-10 -18 -42.5 -52t-75.5 -71t-93 -64.5t-88 -27.5q-35 0 -56 33.5t-21 85.5q0 37 16 121q6 34 12.5 65t14.5 68t14 65 q-23 -50 -76 -122.5t-118 -143.5t-138 -121.5t-126 -50.5q-114 0 -114 164q0 81 31 235l76 351q9 55 9 73q0 57 -23 57q-11 0 -28 -9.5t-33 -23t-34 -31t-30.5 -31t-23 -25t-11.5 -12.5q-5 0 -13.5 16.5t-8.5 26.5zM492 1167q0 13 97 125t120 128q33 23 84 23q18 0 37 -5.5 t35.5 -22t16.5 -40.5q0 -20 -85.5 -77t-177 -105t-108.5 -48q-4 0 -8 4t-7.5 9.5t-3.5 8.5z" />
<glyph unicode="&#xfb;" horiz-adv-x="1119" d="M46 777q10 19 40.5 52.5t71 71t89 64.5t86.5 27q18 0 34 -9t28 -24.5t19.5 -38t7.5 -47.5q0 -37 -16 -121l-80 -376q-4 -18 -10 -62t-6 -61q0 -22 1.5 -37.5t5.5 -30.5t13 -22.5t23 -7.5q25 0 69 31.5t95.5 88.5t100.5 127t88.5 157t55.5 168q7 41 23.5 120t26.5 131 q30 9 70 9q53 0 89 -9l-141 -736q-9 -46 -9 -73q0 -57 23 -57q11 0 27.5 9.5t33 23t34.5 31t30.5 31t23 25.5l10.5 12q5 0 14 -16.5t9 -26.5q-10 -18 -42.5 -52t-75.5 -71t-93 -64.5t-88 -27.5q-35 0 -56 33.5t-21 85.5q0 37 16 121q6 34 12.5 65t14.5 68t14 65 q-23 -50 -76 -122.5t-118 -143.5t-138 -121.5t-126 -50.5q-114 0 -114 164q0 81 31 235l76 351q9 55 9 73q0 57 -23 57q-11 0 -28 -9.5t-33 -23t-34 -31t-30.5 -31t-23 -25t-11.5 -12.5q-5 0 -13.5 16.5t-8.5 26.5zM369 1151q163 156 265 265q18 18 27 18q12 0 21 -18 q73 -137 155 -265q-2 -9 -11.5 -17t-18.5 -8q-20 16 -45.5 36.5t-48 39t-42 35t-30.5 26.5l-12 9q-150 -89 -239 -146q-9 0 -15.5 7.5t-5.5 17.5z" />
<glyph unicode="&#xfc;" horiz-adv-x="1119" d="M46 777q10 19 40.5 52.5t71 71t89 64.5t86.5 27q18 0 34 -9t28 -24.5t19.5 -38t7.5 -47.5q0 -37 -16 -121l-80 -376q-4 -18 -10 -62t-6 -61q0 -22 1.5 -37.5t5.5 -30.5t13 -22.5t23 -7.5q25 0 69 31.5t95.5 88.5t100.5 127t88.5 157t55.5 168q7 41 23.5 120t26.5 131 q30 9 70 9q53 0 89 -9l-141 -736q-9 -46 -9 -73q0 -57 23 -57q11 0 27.5 9.5t33 23t34.5 31t30.5 31t23 25.5l10.5 12q5 0 14 -16.5t9 -26.5q-10 -18 -42.5 -52t-75.5 -71t-93 -64.5t-88 -27.5q-35 0 -56 33.5t-21 85.5q0 37 16 121q6 34 12.5 65t14.5 68t14 65 q-23 -50 -76 -122.5t-118 -143.5t-138 -121.5t-126 -50.5q-114 0 -114 164q0 81 31 235l76 351q9 55 9 73q0 57 -23 57q-11 0 -28 -9.5t-33 -23t-34 -31t-30.5 -31t-23 -25t-11.5 -12.5q-5 0 -13.5 16.5t-8.5 26.5zM342 1270q6 28 24.5 52t44.5 38.5t52 14.5 q39 0 62.5 -32.5t14.5 -74.5q-8 -43 -43.5 -73t-75 -30t-63.5 31.5t-16 73.5zM730 1270q8 42 45.5 73.5t77.5 31.5q39 0 61.5 -32t13.5 -75t-44 -73t-75 -30q-25 0 -45.5 14t-30 38.5t-3.5 52.5z" />
<glyph unicode="&#xfd;" horiz-adv-x="1019" d="M-253 -438q0 31 14 59t38 42q26 -16 85.5 -30t97.5 -14q99 0 173.5 49.5t136.5 139.5q15 23 24.5 52.5t12.5 73t4.5 67.5t0.5 78.5t-1 61.5q0 112 -6 225.5t-20 232.5t-42.5 193t-68.5 74q-11 0 -28 -9.5t-33 -23t-34 -31t-30.5 -31t-23 -25t-11.5 -12.5q-5 0 -13.5 16.5 t-8.5 26.5q10 19 40.5 52.5t71.5 71t89.5 64.5t85.5 27q35 0 64.5 -34.5t50 -96.5t36 -134.5t24.5 -162t15 -165t8.5 -158t3.5 -125.5t1 -82q28 35 59 79t68.5 109.5t66.5 132t48.5 145.5t19.5 150q0 64 -10.5 116t-19.5 72.5t-27 55.5q14 45 44 71.5t70 26.5 q100 0 100 -180q0 -129 -55.5 -284.5t-145 -301.5t-203.5 -285.5t-228.5 -242.5t-223 -166t-183.5 -63q-60 0 -98.5 27.5t-38.5 65.5zM522 1167q0 13 96.5 125t120.5 128q32 23 84 23q18 0 36.5 -5.5t35.5 -22t17 -40.5q0 -15 -53.5 -54t-119.5 -77.5t-126 -68.5t-73 -30 q-2 0 -5.5 2.5t-6 6t-4.5 7.5t-2 6z" />
<glyph unicode="&#xfe;" horiz-adv-x="1023" d="M-123 -504.5q1 29.5 10 34.5q61 0 91 37q21 27 37 98l180 905l-110 -109q-13 17 -13 45q0 9 7 16l134 144l116 611q3 14 8.5 41.5t9 48t3.5 31.5q0 43 -139 43q-5 7 -1.5 24t10.5 24q125 11 301 75q14 -8 14 -43q0 -23 -30 -171q-4 -25 -56.5 -290t-53.5 -271 q220 203 338 203q53 0 92 -20.5t62 -58t33.5 -86.5t10.5 -111q0 -104 -32.5 -211t-90 -198t-129 -163.5t-156.5 -113.5t-166 -41q-87 0 -105 29l-75 -349q-7 -30 -7 -63q0 -7 3 -17.5t10.5 -21.5t18.5 -14q29 -7 107 -7q7 -1 4 -30.5t-11 -33.5q-15 0 -41.5 1.5t-38.5 1.5 q-167 0 -337 -21q-9 2 -8 31.5zM297 299q-12 -65 1.5 -119t42.5 -83t64 -29q40 0 80.5 20.5t75 56t66 83t56 104.5t42.5 117t28 122t10 120q0 175 -121 175q-55 0 -138.5 -57.5t-130.5 -124.5z" />
<glyph unicode="&#xff;" horiz-adv-x="1019" d="M-253 -438q0 31 14 59t38 42q26 -16 85.5 -30t97.5 -14q99 0 173.5 49.5t136.5 139.5q15 23 24.5 52.5t12.5 73t4.5 67.5t0.5 78.5t-1 61.5q0 112 -6 225.5t-20 232.5t-42.5 193t-68.5 74q-11 0 -28 -9.5t-33 -23t-34 -31t-30.5 -31t-23 -25t-11.5 -12.5q-5 0 -13.5 16.5 t-8.5 26.5q10 19 40.5 52.5t71.5 71t89.5 64.5t85.5 27q35 0 64.5 -34.5t50 -96.5t36 -134.5t24.5 -162t15 -165t8.5 -158t3.5 -125.5t1 -82q28 35 59 79t68.5 109.5t66.5 132t48.5 145.5t19.5 150q0 64 -10.5 116t-19.5 72.5t-27 55.5q14 45 44 71.5t70 26.5 q100 0 100 -180q0 -129 -55.5 -284.5t-145 -301.5t-203.5 -285.5t-228.5 -242.5t-223 -166t-183.5 -63q-60 0 -98.5 27.5t-38.5 65.5zM298.5 1270q5.5 28 24.5 52t45 38.5t52 14.5q39 0 62.5 -32.5t14.5 -74.5q-8 -43 -43.5 -73t-75.5 -30q-25 0 -45.5 14t-30 38.5t-4 52.5z M686.5 1270q8.5 42 46 73.5t76.5 31.5q40 0 62 -32t14 -75q-9 -43 -44 -73t-75 -30t-64 31.5t-15.5 73.5z" />
<glyph unicode="&#x152;" horiz-adv-x="2020" d="M130 625q0 121 29 236t80.5 213.5t126 181t163.5 140.5t195 90t218 32q82 0 218 -10.5t208 -9.5q95 0 322 8t346 8q-5 -28 -1.5 -159.5t3.5 -150.5q-11 -12 -41 -12q-25 0 -25 16q-4 67 -20 112.5t-43 70.5t-60 35t-77 10h-183q-22 0 -49 -1t-61.5 -7t-39.5 -17 q-24 -48 -46 -164l-84 -438q-2 -7 23 -10t66 -3h111h64.5t49 4t37.5 6t28 12.5t21.5 17t18 26t17.5 33t20 44.5q6 13 9 21q6 16 36 16q25 0 32 -12l-82 -430q-9 -10 -36 -10q-26 0 -30 19q-5 91 -11 119.5t-19 39.5q-23 18 -221 18q-153 0 -157 -20l-89 -451 q-3 -18 -6.5 -38t-8 -49.5t-4.5 -45.5t3 -25q9 -8 19 -13t30.5 -7t38 -2.5t58.5 -0.5h100q175 0 283 71q101 67 178 230q7 14 34 14q15 0 31 -4.5t19 -9.5q-14 -28 -64.5 -120t-80 -152.5t-44.5 -105.5q-86 0 -324.5 6t-396.5 3q-66 -1 -176 -13t-145 -12q-102 0 -190 24 t-154 68t-117.5 103.5t-84 132.5t-49 154t-16.5 168zM344 620q0 -279 102 -429t295 -150q59 0 105.5 11.5t73 29.5t39.5 32.5t19 26.5t8.5 17.5t7 15.5t7 17.5t6 18.5t6.5 24.5t6 29.5l189 1006q8 41 -7.5 73.5t-45 52t-71.5 32.5t-82 17.5t-81 4.5q-84 0 -162 -34 t-140.5 -93.5t-114.5 -140t-87 -172.5t-54 -192t-19 -198z" />
<glyph unicode="&#x153;" horiz-adv-x="1399" d="M55 315q0 94 28 192.5t78.5 184t115 153.5t142 107.5t153.5 39.5q100 0 163 -52.5t88 -146.5q41 46 86.5 82.5t93.5 62.5t97.5 40t96.5 14q42 0 72.5 -12.5t47 -33.5t23.5 -44.5t7 -51.5q0 -45 -22 -91t-60 -85.5t-86 -76t-100 -65t-102.5 -49.5t-95 -32t-74.5 -11 q-4 -14 -4 -73q0 -112 38 -179t119 -67q92 1 235 157q5 0 16 -18t11 -27q-13 -23 -47.5 -61t-82 -81t-107 -74t-109.5 -31q-87 0 -146 46t-85 132q-73 -81 -157 -128t-169 -47q-132 0 -198 86.5t-66 239.5zM233 360q0 -138 34 -218t96 -80q44 0 88 27.5t81.5 79.5 t66.5 120.5t45.5 155t16.5 177.5q0 141 -30 219t-91 78q-55 0 -105 -36t-86 -95t-63 -132.5t-40 -150t-13 -145.5zM812 497q26 1 63 13.5t77.5 32.5t81 49.5t73 62t52.5 73t20 79.5q0 43 -29.5 67t-66.5 24q-40 0 -79.5 -25.5t-70.5 -68t-57 -95t-42 -107.5t-22 -105z" />
<glyph unicode="&#x178;" horiz-adv-x="1267" d="M144 1480q6 23 14 29q36 -1 85.5 -4.5t90 -5t86.5 -1.5q57 0 274 11q1 -5 0 -16t-3 -22t-5.5 -19.5t-7.5 -8.5q-14 0 -33.5 -3t-43.5 -10.5t-42 -23t-22 -36.5q-5 -17 11 -68l185 -547q69 97 156.5 225t155.5 231.5t87 138.5q10 16 13 34q1 5 -2 11.5t-13 14.5t-25.5 15 t-42.5 11.5t-60 4.5q-5 6 -1 32.5t10 33.5q24 -1 67.5 -4.5t76.5 -5t68 -1.5q49 0 85.5 1.5t79 5t70.5 4.5q0 -8 -7 -37t-11 -29q-9 0 -17 -0.5t-28 -2.5t-39 -8.5t-40.5 -15.5t-42.5 -26t-36 -38l-468 -664q-8 -11 -12 -22t-7 -29.5t-4 -18.5l-70 -352q-1 -4 -3 -13 q-24 -121 -20 -155q1 -12 31.5 -21t61 -12.5t46.5 -3.5q6 -8 2 -33t-13 -33q-23 1 -78 4.5t-93.5 5.5t-75.5 2t-76 -2t-96.5 -5.5t-80.5 -4.5q-6 9 -0.5 33t14.5 33q17 0 48.5 3.5t65.5 12.5t39 21q3 6 6.5 15t6 16.5t5.5 20t5 20t5.5 23.5t4.5 23t5 26t5 24l66 345 q6 38 -2 64l-189 576q-20 62 -44.5 95.5t-65.5 62.5q-15 11 -37 19.5t-41.5 12.5t-32.5 4q-11 0 -1 37zM585 1774q5 31 24 57.5t46.5 41.5t56.5 15q45 0 69 -33t16 -81q-9 -48 -47.5 -81t-82.5 -33t-67.5 33t-14.5 81zM968 1774q8 48 45.5 81t81.5 33q45 0 69 -33t16 -81 q-9 -48 -46 -81t-82 -33q-29 0 -50.5 15t-30.5 41t-3 58z" />
<glyph unicode="&#x2c6;" horiz-adv-x="560" d="M48 1142q162 156 264 265q18 18 27 18q12 0 21 -18q73 -137 155 -265q-2 -10 -11.5 -17.5t-18.5 -7.5q-31 25 -75.5 61t-73.5 61l-28 24q-151 -89 -240 -146q-9 0 -15.5 7.5t-4.5 17.5z" />
<glyph unicode="&#x2dc;" horiz-adv-x="1016" d="M1420 1140q7 48 46 82q79 73 180 73q68 0 128 -30q8 -3 39.5 -20.5t55 -24.5t53.5 -7q10 0 21 2t20.5 5t19.5 8t17.5 9t16.5 11t14.5 11t13 11t10.5 10l9 9l6 6l7.5 -3t5 -5.5t1.5 -11.5q-4 -23 -18 -46.5t-30 -38.5q-79 -73 -178 -73q-58 0 -125 32q-5 2 -31.5 15.5 t-38.5 18t-36 10.5t-47 6q-11 0 -22 -2t-20 -5t-19.5 -8t-18 -9t-16.5 -11t-14.5 -11t-13 -11t-10.5 -10l-8.5 -8.5t-5.5 -6.5q-14 5 -12 23z" />
<glyph unicode="&#x2000;" horiz-adv-x="955" />
<glyph unicode="&#x2001;" horiz-adv-x="1911" />
<glyph unicode="&#x2002;" horiz-adv-x="955" />
<glyph unicode="&#x2003;" horiz-adv-x="1911" />
<glyph unicode="&#x2004;" horiz-adv-x="637" />
<glyph unicode="&#x2005;" horiz-adv-x="477" />
<glyph unicode="&#x2006;" horiz-adv-x="318" />
<glyph unicode="&#x2007;" horiz-adv-x="318" />
<glyph unicode="&#x2008;" horiz-adv-x="238" />
<glyph unicode="&#x2009;" horiz-adv-x="382" />
<glyph unicode="&#x200a;" horiz-adv-x="106" />
<glyph unicode="&#x2010;" horiz-adv-x="845" d="M121 488q0 24 15.5 65t32.5 42l517 27q14 0 14 -27q0 -15 -8 -42t-21 -50t-23 -24l-516 -25q-11 0 -11 34z" />
<glyph unicode="&#x2011;" horiz-adv-x="845" d="M121 488q0 24 15.5 65t32.5 42l517 27q14 0 14 -27q0 -15 -8 -42t-21 -50t-23 -24l-516 -25q-11 0 -11 34z" />
<glyph unicode="&#x2012;" horiz-adv-x="845" d="M121 488q0 24 15.5 65t32.5 42l517 27q14 0 14 -27q0 -15 -8 -42t-21 -50t-23 -24l-516 -25q-11 0 -11 34z" />
<glyph unicode="&#x2013;" horiz-adv-x="1285" d="M121 486q0 26 15.5 63t34.5 48h948q14 0 14 -29q0 -17 -6.5 -39.5t-18.5 -43.5t-25 -29h-948q-14 0 -14 30z" />
<glyph unicode="&#x2014;" horiz-adv-x="1823" d="M121 486q0 26 15.5 63t34.5 48h1487q13 0 13 -29q0 -17 -6.5 -39.5t-18.5 -43.5t-25 -29h-1486q-14 0 -14 30z" />
<glyph unicode="&#x2018;" horiz-adv-x="417" d="M224.5 1175.5q-0.5 47.5 8.5 89.5q11 61 44.5 118t73.5 96.5t80.5 70t68 45.5t34.5 15q24 0 31 -41q-40 -24 -73.5 -52t-53.5 -51t-34.5 -46.5t-20 -37t-7.5 -21.5q-4 -20 5.5 -42t23 -38.5t23 -39.5t5.5 -44q-8 -40 -56 -69t-101 -29q-21 0 -41 7q-10 22 -10.5 69.5z " />
<glyph unicode="&#x2019;" horiz-adv-x="440" d="M189 1145q50 28 89.5 63t59.5 64.5t30 49t13 30.5q4 20 -5.5 42t-22 38.5t-22 39.5t-5.5 44q8 40 55.5 69t99.5 29q21 0 41 -7q10 -24 9.5 -69t-9.5 -90q-11 -60 -44.5 -117.5t-73 -97t-79.5 -70t-67.5 -45t-34.5 -14.5q-5 0 -10.5 2.5t-10 8t-8 13t-5.5 17.5z" />
<glyph unicode="&#x201a;" horiz-adv-x="446" d="M-103 -182q50 28 89.5 63t59.5 64.5t30 49t13 30.5q4 20 -5.5 42t-23 38.5t-23 39.5t-5.5 44q8 40 56.5 69t100.5 29q21 0 41 -7q10 -24 9.5 -69t-9.5 -90q-11 -60 -44.5 -117.5t-73 -96.5t-79.5 -69t-67.5 -44.5t-33.5 -14.5q-13 0 -22 10t-13 29z" />
<glyph unicode="&#x201c;" horiz-adv-x="720" d="M224.5 1175.5q-0.5 47.5 8.5 89.5q11 61 44.5 118t73.5 96.5t80.5 70t68 45.5t34.5 15q24 0 31 -41q-40 -24 -73.5 -52t-53.5 -51t-34.5 -46.5t-20 -37t-7.5 -21.5q-4 -20 5.5 -42t23 -38.5t23 -39.5t5.5 -44q-8 -40 -56 -69t-101 -29q-21 0 -41 7q-10 22 -10.5 69.5z M528.5 1175.5q0.5 45.5 9.5 89.5q12 61 45 118t72.5 96.5t80 70t67.5 45.5t34 15q12 0 21.5 -11.5t12.5 -29.5q-50 -29 -89 -63.5t-59.5 -64.5t-30.5 -49.5t-13 -30.5q-3 -20 6.5 -42t22.5 -38.5t22.5 -39.5t5.5 -44q-8 -40 -55 -69t-100 -29q-22 0 -43 7q-10 24 -9.5 69.5z " />
<glyph unicode="&#x201d;" horiz-adv-x="745" d="M189 1145q50 28 89.5 63t59.5 64.5t30 49t13 30.5q4 20 -5.5 42t-22 38.5t-22 39.5t-5.5 44q8 40 55.5 69t99.5 29q21 0 41 -7q10 -24 9.5 -69t-9.5 -90q-11 -60 -44.5 -117.5t-73 -97t-79.5 -70t-67.5 -45t-34.5 -14.5q-5 0 -10.5 2.5t-10 8t-8 13t-5.5 17.5zM495 1145 q50 28 88.5 62.5t58.5 64.5t30 49.5t12 30.5q4 20 -5 42t-22 38.5t-22.5 39.5t-5.5 44q9 40 56 69t99 29q21 0 41 -7q10 -21 10.5 -69t-7.5 -90q-10 -51 -35.5 -100t-57 -85t-66.5 -67.5t-65.5 -51t-51 -30t-25.5 -10.5q-25 0 -32 41z" />
<glyph unicode="&#x201e;" horiz-adv-x="750" d="M-103 -182q50 28 89.5 63t59.5 64.5t30 49t13 30.5q4 20 -5.5 42t-23 38.5t-23 39.5t-5.5 44q8 40 56.5 69t100.5 29q21 0 41 -7q10 -24 9.5 -69t-9.5 -90q-11 -60 -44.5 -117.5t-73 -96.5t-79.5 -69t-67.5 -44.5t-33.5 -14.5q-13 0 -22 10t-13 29zM201 -187 q40 23 73.5 51t53.5 51.5t34.5 47t20 36.5t7.5 22q4 19 -5.5 41t-22 39t-22 39.5t-5.5 44.5q9 40 57 69t100 29q21 0 42 -7q9 -24 8.5 -69.5t-8.5 -90.5q-12 -60 -45.5 -117t-73 -96t-79.5 -69.5t-67 -45t-34 -14.5q-12 0 -21.5 10.5t-12.5 28.5z" />
<glyph unicode="&#x2022;" horiz-adv-x="761" d="M168 600q19 100 100.5 173t175.5 73t146.5 -72.5t33.5 -173.5q-18 -101 -99.5 -174t-175.5 -73t-146.5 72.5t-34.5 174.5z" />
<glyph unicode="&#x2026;" horiz-adv-x="1550" d="M21 73q0 63 44.5 111.5t100.5 48.5q45 0 73 -29t28 -74q0 -63 -47 -112.5t-104 -49.5q-43 0 -69 29.5t-26 75.5zM561 73q0 63 44.5 111.5t101.5 48.5q44 0 72 -29t28 -74q0 -25 -8.5 -49.5t-23 -44.5t-33.5 -35.5t-41 -24t-44 -8.5q-44 0 -70 29.5t-26 75.5zM1097 73 q0 42 21 79t55.5 59t71.5 22q44 0 72 -29t28 -74q0 -63 -47.5 -112.5t-105.5 -49.5q-43 0 -69 29.5t-26 75.5z" />
<glyph unicode="&#x202f;" horiz-adv-x="382" />
<glyph unicode="&#x2039;" horiz-adv-x="693" d="M62 552q0 17 10 32t24 22q73 42 132 79t113 75.5t86 63t91 71t88 69.5q11 -2 25 -11t17 -23q-4 -7 -44.5 -47.5t-96 -92t-111 -102.5t-93.5 -86l-39 -34q238 -342 238 -361q-14 -23 -48 -41q-53 69 -161 173t-209 181q-22 15 -22 32z" />
<glyph unicode="&#x203a;" horiz-adv-x="695" d="M30 201q3 7 43.5 47.5t96 92t111 102.5t93.5 85l39 35q-237 342 -237 360q13 24 47 41q53 -68 161 -172t209 -181q23 -15 23 -32t-10.5 -32t-24.5 -23q-72 -41 -131.5 -78t-113 -75.5t-86 -63t-91.5 -71.5t-88 -70q-11 3 -24.5 12t-16.5 23z" />
<glyph unicode="&#x205f;" horiz-adv-x="477" />
<glyph unicode="&#x20ac;" horiz-adv-x="1409" d="M64 570q0 13 9 37t20 34h771q7 0 7 -19q0 -7 -2.5 -18.5t-9 -27t-15.5 -24.5h-771q-9 0 -9 18zM98 793q0 14 9.5 38t20.5 33h770q7 0 7 -18q0 -13 -7 -35t-20 -36h-771q-9 0 -9 18zM182 575q0 133 34.5 254.5t94 216t140.5 171.5t174 127t193.5 76t200.5 23 q120 -2 333 -57q-1 -12 -8.5 -145t-9.5 -172q0 -16 -23 -16q-40 0 -48 16q5 84 -37 153.5t-112.5 107.5t-151.5 38q-89 0 -174 -33t-157 -98.5t-126.5 -155.5t-85 -211.5t-29.5 -258.5q0 -65 11.5 -130t34 -127t58.5 -115.5t82 -93.5t107 -63t131 -23q146 0 267 110 q87 78 150 205q8 0 16.5 -1.5t15.5 -4t13 -5t9 -3.5l3 -2q-4 -22 -34 -89.5t-64 -132.5t-48 -77q-79 -44 -166 -60.5t-217 -16.5q-92 0 -179.5 30.5t-158.5 86t-125 128.5t-84 163t-30 185z" />
<glyph unicode="&#x25fc;" horiz-adv-x="990" d="M0 0v990h990v-990h-990z" />
<glyph unicode="&#xfb01;" horiz-adv-x="1185" d="M-399 -433q-2 52 25.5 93t67.5 41q17 0 32 -14t27 -34.5t26 -41t35.5 -35t48.5 -14.5q36 0 71.5 37t62.5 91.5t50.5 121.5t37.5 122.5t22 99.5l137 773v5q0 11 -7 11h-148q-5 0 -5 7q0 21 37 59.5t73 38.5h66q8 0 13 20q23 139 75.5 260.5t122 205.5t153.5 132t169 48 q58 0 98.5 -10t58.5 -21t39 -31q54 -50 73 -96q0 -54 -27 -100t-75 -46q-18 0 -32.5 6.5t-27 21t-19 24.5t-19.5 33q-1 2 -10.5 19t-12 21t-12 19t-14.5 20t-15 16.5t-18 15.5t-19.5 10.5t-23.5 8.5t-26 2q-67 0 -142.5 -126.5t-124.5 -354.5q-2 -12 -7.5 -40t-8.5 -44v-5 q0 -9 7 -9q46 0 169.5 4t152.5 7q21 2 73.5 5.5t95 6t45.5 2.5q8 0 20 -12.5t12 -26.5q0 -16 -5.5 -73.5t-12.5 -88.5l-117 -510q-9 -46 -9 -73q0 -57 23 -57q11 0 28 9.5t33 23t34 31t30.5 31t23 25.5t11.5 12q3 0 8.5 -8t9.5 -18.5t4 -16.5q-10 -18 -42.5 -52t-75 -71 t-93 -64.5t-87.5 -27.5q-36 0 -57 33.5t-21 85.5q0 54 16 121l101 442q6 48 6 64q0 42 -14.5 72t-44.5 30q-36 0 -84 -1t-90.5 -2.5t-79.5 -3.5t-59 -3l-22 -1q-4 0 -6 -0.5t-4.5 -5t-3.5 -12.5l-125 -682q-28 -162 -81.5 -289t-120 -204t-140.5 -117t-151 -40 q-78 0 -125 29t-59 65z" />
<glyph unicode="&#xfb02;" horiz-adv-x="1208" d="M-399 -433q-2 52 25.5 93t67.5 41q17 0 32 -14t27 -34.5t26 -41t35.5 -35t48.5 -14.5q36 0 71.5 37t62.5 91.5t50.5 121.5t37.5 122.5t22 99.5l137 773v5q0 11 -7 11h-148q-5 0 -5 7q0 21 37 59.5t73 38.5h66q8 0 13 20q23 139 75.5 260.5t122 205.5t153.5 132t169 48 q54 0 102 -12t77 -24t38 -12q28 0 99 18t79 18q11 0 11 -36q-5 -8 -13 -24t-26 -67.5t-29 -107.5l-217 -1105q-1 -4 -2.5 -14t-3 -22t-2.5 -22.5t-1 -14.5q0 -57 23 -57q11 0 27.5 9.5t33 23t34.5 31t30.5 31t23 25.5l10.5 12q5 0 14 -16.5t9 -26.5q-8 -14 -30 -39 t-55 -55.5t-69 -57.5t-75 -45t-70 -18q-36 0 -56.5 33t-20.5 86q0 37 16 121l205 1049q2 7 5.5 34t3.5 34q0 71 -64 117.5t-148 46.5q-228 0 -324 -565v-5q0 -3 2.5 -6t4.5 -3h262q12 0 12 -27q0 -38 -25 -78h-267q-3 0 -5 -0.5t-5 -5t-4 -12.5l-125 -682 q-28 -162 -81.5 -289t-120 -204t-140.5 -117t-151 -40q-78 0 -125 29t-59 65z" />
<glyph unicode="&#xfb03;" horiz-adv-x="1780" d="M-401 -435q0 31 8.5 60.5t30 52.5t52.5 23q17 0 31.5 -10t23.5 -25.5t20 -33.5t21.5 -33.5t28.5 -26t41 -10.5q48 0 102.5 75t91.5 169.5t50 170.5q1 4 21 128l121 702v5q0 11 -7 11h-148q-5 0 -5 7q0 21 37 59.5t73 38.5h66q8 0 13 20q22 109 67.5 207t105 170 t128.5 125t139 80t135 27q58 0 112 -11t88 -26t51 -31q20 19 55.5 38.5t76 34t83 23.5t74.5 9q58 0 98.5 -10t58.5 -21t39 -31q54 -50 73 -96q0 -54 -26.5 -100t-75.5 -46q-18 0 -32.5 6.5t-27 21t-19 24.5t-19.5 33q-1 2 -10.5 19t-12 21t-12 19t-14.5 20t-14.5 16.5 t-18 15.5t-19.5 10.5t-23.5 8.5t-26.5 2q-35 0 -68 -21.5t-59.5 -59.5t-49 -82.5t-40.5 -98t-31.5 -99t-23.5 -92.5t-14.5 -71t-7.5 -41v-5q0 -9 7 -9l333 11q21 2 73.5 5.5t95 6t45.5 2.5q8 0 20 -12.5t12 -26.5q0 -16 -5.5 -73.5t-12.5 -88.5l-117 -510q-9 -46 -9 -73 q0 -57 23 -57q7 0 16 3.5t18.5 9.5t20 14t20.5 17t20.5 19t19 19.5t16.5 18t14 15t10 11t5 5.5q5 0 14 -16.5t9 -26.5q-11 -18 -43.5 -52t-75 -71t-93 -64.5t-87.5 -27.5q-35 0 -56.5 33.5t-21.5 85.5q0 54 16 121l101 442q6 48 6 64q0 42 -14.5 72t-44.5 30l-346 -11h-4 t-2.5 -0.5t-2.5 -1.5t-2 -3t-1.5 -5.5t-1.5 -7.5l-98 -563q-18 -91 -45 -173.5t-58.5 -148t-68.5 -123t-75.5 -100.5t-78.5 -78.5t-78 -59t-74.5 -39.5t-67 -23.5t-56.5 -7.5q-43 0 -82 12.5t-66 32t-43.5 36t-27.5 31.5q-38 -44 -87 -74.5t-96.5 -44t-94.5 -13.5 q-138 0 -189 96zM171 -246q0 -4 1 -11l1 -7q4 -17 8.5 -32.5t15.5 -36t25 -35.5t37 -25.5t51 -10.5q51 0 107.5 33.5t112 97.5t103.5 170.5t76 239.5l116 670v5q0 11 -6 11h-404q-4 0 -6 -0.5t-4.5 -5t-3.5 -12.5l-125 -707q-22 -112 -44.5 -186.5t-58.5 -146.5 q-2 -2 -2 -11zM426 937q0 -9 9 -9h406q9 0 14 20q20 103 57 214t68 170q3 2 3 11q0 4 -1.5 11l-1.5 7q-7 38 -60 74t-122 36q-85 0 -158.5 -59t-122.5 -156t-75 -221q-8 -46 -16 -93v-5z" />
<glyph unicode="&#xfb04;" horiz-adv-x="1803" d="M-401 -435q0 31 8.5 60.5t30 52.5t52.5 23q17 0 31.5 -10t23.5 -25.5t20 -33.5t21.5 -33.5t28.5 -26t41 -10.5q48 0 102.5 75t91.5 169.5t50 170.5q1 4 21 128l121 702v5q0 11 -7 11h-148q-5 0 -5 7q0 21 37 59.5t73 38.5h66q8 0 13 20q22 109 67.5 207t105 170 t128.5 125t139 80t135 27q58 0 112 -11t88 -26t51 -31q20 19 55.5 38.5t76 34t83 23.5t74.5 9q54 0 102 -12t77 -24t38 -12q28 0 99 18t79 18q11 0 11 -36q-5 -8 -13 -24t-26 -67.5t-29 -107.5l-217 -1105q-1 -5 -3 -20.5t-4 -31.5t-2 -21q0 -57 23 -57q11 0 28 9.5t33 23 t34 31t30.5 31t23 25.5l10.5 12q6 0 14.5 -16.5t8.5 -26.5q-10 -18 -42.5 -52t-75 -71t-93 -64.5t-88.5 -27.5q-36 0 -56.5 33t-20.5 86q0 37 16 121l205 1049q2 7 5.5 34t3.5 34q0 71 -64 117.5t-148 46.5q-228 0 -324 -565v-5q0 -3 2.5 -6t4.5 -3h262q12 0 12 -27 q0 -38 -25 -78h-267q-3 0 -4.5 -0.5t-4.5 -5t-5 -12.5l-109 -563q-22 -116 -59.5 -218t-81 -177t-94.5 -136.5t-101.5 -102t-100 -68t-91 -39.5t-74.5 -12q-43 0 -82 12.5t-66 32t-43.5 36t-27.5 31.5q-38 -44 -87 -74.5t-96.5 -44t-94.5 -13.5q-138 0 -189 96zM171 -246 q0 -4 1 -11l1 -7q4 -17 8.5 -32.5t15.5 -36t25 -35.5t37 -25.5t51 -10.5q51 0 107.5 33.5t112 97.5t103.5 170.5t76 239.5l116 670v5q0 11 -6 11h-404q-4 0 -6 -0.5t-4.5 -5t-3.5 -12.5l-125 -707q-22 -112 -44.5 -186.5t-58.5 -146.5q-2 -2 -2 -11zM426 937q0 -9 9 -9h406 q9 0 14 20q20 103 57 214t68 170q3 2 3 11q0 4 -1.5 11l-1.5 7q-7 38 -60 74t-122 36q-85 0 -158.5 -59t-122.5 -156t-75 -221q-8 -46 -16 -93v-5z" />
</font>
</defs>
</svg>
